<?xml version="1.0" standalone="no"?>
<!DOCTYPE svg PUBLIC "-//W3C//DTD SVG 1.1//EN" "http://www.w3.org/Graphics/SVG/1.1/DTD/svg11.dtd" >
<svg xmlns="http://www.w3.org/2000/svg">
<metadata>Generated by IcoMoon</metadata>
<defs>
<font id="yunfont" horiz-adv-x="1024">
<font-face units-per-em="1024" ascent="960" descent="-64" />
<missing-glyph horiz-adv-x="1024" />
<glyph unicode="&#x20;" horiz-adv-x="512" d="" />
<glyph unicode="&#xe900;" glyph-name="my-share" horiz-adv-x="970" d="M645.875 553.418c-6.899 3.934-12.719 9-19.079 13.528l-195.853-156.133c-0.377-8.138-2.479-16.168-3.719-24.253l19.24 17.031 147.725-103.801c66.776 72.435 176.559 92.429 265.809 41.607 103.963-59.23 140.342-191.596 81.219-295.72s-191.38-140.557-295.397-81.327c-82.513 46.996-121.533 140.019-104.879 228.514l-147.995 105.364c-63.057-91.729-186.099-122.179-284.618-66.129-103.963 59.23-140.342 191.65-81.165 295.774 59.123 104.125 191.38 140.504 295.343 81.327 32.499-18.486 57.452-44.625 75.884-74.267l155.432 123.85c-24.845 59.769-23.66 129.725 10.779 190.41 59.123 104.125 191.38 140.504 295.343 81.327 103.963-59.23 140.342-191.596 81.219-295.72-59.069-104.179-191.326-140.557-295.289-81.381zM755.119 48.101c59.392 0 107.52 47.966 107.52 107.089 0 59.176-48.128 107.089-107.52 107.089s-107.52-47.966-107.52-107.089c0.054-59.123 48.182-107.089 107.52-107.089zM217.627 530.028c-59.392 0-107.52-47.966-107.52-107.089s48.128-107.089 107.52-107.089 107.52 47.966 107.52 107.089-48.128 107.089-107.52 107.089zM755.119 851.348c-59.392 0-107.52-47.966-107.52-107.089s48.182-107.089 107.52-107.089 107.52 47.966 107.52 107.089-48.128 107.089-107.52 107.089z" />
<glyph unicode="&#xe901;" glyph-name="disk" horiz-adv-x="960" d="M448 512h-128c-35.328 0-64-28.608-64-64s28.672-64 64-64h128c35.328 0 64 28.608 64 64s-28.672 64-64 64zM832 960h-512c-70.656 0-128-57.344-128-128v-64h-64c-70.656 0-128-57.344-128-128v-576c0-70.656 57.344-128 128-128h512c70.656 0 128 57.344 128 128h64c70.656 0 128 57.344 128 128v640c0 70.656-57.344 128-128 128zM640 128c0-35.392-28.672-64-64-64h-384c-35.328 0-64 28.608-64 64v448c0 35.392 28.672 64 64 64h384c35.328 0 64-28.608 64-64v-448zM832 256c0-35.392-28.672-64-64-64v448c0 70.656-57.344 128-128 128h-320c0 35.392 28.672 64 64 64h384c35.328 0 64-28.608 64-64v-512zM448 320h-128c-35.328 0-64-28.608-64-64s28.672-64 64-64h128c35.328 0 64 28.608 64 64s-28.672 64-64 64z" />
<glyph unicode="&#xe902;" glyph-name="share" d="M676.54 526.63c-6.523 3.741-11.984 8.495-17.951 12.793l-184.26-147.398c5.916-5.967 14.614-6.877 14.614-6.877l138.954-97.996c62.853 68.364 166.107 87.276 250.046 39.289 97.844-55.925 132.027-180.923 76.404-279.273-55.622-98.299-180.064-132.683-277.908-76.809-77.669 44.396-114.328 132.228-98.703 215.763l-139.206 99.513c-59.364-86.619-175.108-115.39-267.744-62.448-97.844 55.925-132.027 180.923-76.404 279.273 55.622 98.299 180.064 132.683 277.857 76.758 30.542-17.445 54.055-42.121 71.398-70.135l146.235 116.958c-23.361 56.482-22.248 122.52 10.164 179.76 55.622 98.299 180.064 132.683 277.857 76.758 97.844-55.925 132.027-180.923 76.404-279.273-55.521-98.198-179.912-132.583-277.756-76.658zM779.34 49.443c55.875 0 101.13 45.256 101.13 101.13s-45.256 101.13-101.13 101.13c-55.875 0-101.13-45.256-101.13-101.13s45.256-101.13 101.13-101.13zM273.685 504.532c-55.875 0-101.13-45.256-101.13-101.13s45.256-101.13 101.13-101.13 101.13 45.256 101.13 101.13-45.306 101.13-101.13 101.13zM779.34 807.924c-55.875 0-101.13-45.256-101.13-101.13s45.256-101.13 101.13-101.13c55.875 0 101.13 45.256 101.13 101.13s-45.306 101.13-101.13 101.13z" />
<glyph unicode="&#xe903;" glyph-name="delete" d="M800-63.999h-576c-70.692 0-127.999 57.307-127.999 127.999v511.999c0 70.692 57.307 127.999 127.999 127.999h576c70.692 0 127.999-57.307 127.999-127.999v-511.999c0-70.692-57.307-127.999-127.999-127.999zM800 512c0 35.346-28.654 64-64 64h-448c-35.346 0-64-28.654-64-64v-384c0-35.346 28.654-64 64-64h448c35.346 0 64 28.654 64 64v384zM608 192c-35.346 0-64 28.654-64 64v127.999c0 35.346 28.654 64 64 64s64-28.654 64-64v-127.999c0-35.346-28.654-64-64-64zM416 192c-35.346 0-64 28.654-64 64v127.999c0 35.346 28.654 64 64 64s64-28.654 64-64v-127.999c0-35.346-28.654-64-64-64zM864 767.999h-703.999c-35.346 0-64 28.654-64 64s28.654 64 64 64h256c0 35.346 28.654 64 64 64h64c35.346 0 64-28.654 64-64h256c35.346 0 64-28.654 64-64s-28.654-64-64-64z" />
<glyph unicode="&#xe904;" glyph-name="theme" horiz-adv-x="1270" d="M898.984 1.48c-0.237-0.046-0.567-0.046-0.942 0h-525.634c-26.006 0-47.073 21.059-47.119 47.073l-0.473 333.774-47.402-31.995c-10.981-7.352-24.551-9.848-37.317-6.785-12.818 3.063-23.793 11.403-30.203 22.943l-124.149 223.8c-9.656 17.433-7.306 39.010 5.843 53.995l203.262 230.916c8.952 10.177 21.817 15.974 35.339 15.974h140.598c20.4 0 38.45-13.096 44.806-32.507 2.359-6.547 27.515-69.357 119.253-69.357 94.704 0 119.156 69.12 119.393 69.824 6.456 19.129 24.451 32.040 44.622 32.040h140.598c13.524 0 26.435-5.843 35.387-15.974l203.216-230.916c13.149-14.933 15.453-36.563 5.797-53.995l-124.103-223.708c-6.41-11.494-17.291-19.834-30.157-22.897-12.765-3.253-26.289-0.751-37.317 6.693l-47.777 32.086 0.613-324.256c0.613-3.063 0.942-6.264 0.942-9.519 0.046-26.106-21.013-47.211-47.073-47.211zM419.432 95.709h431.442l-0.704 375.050c-0.046 17.433 9.565 33.403 24.88 41.651 15.499 8.248 34.062 7.306 48.482-2.451l78.73-52.862 83.11 149.782-167.216 189.976h-90.462c-24.36-39.675-80.43-101.864-192.847-101.864-113.175 0-168.963 62.051-193.131 101.864h-90.179l-167.262-189.976 83.019-149.688 78.163 52.724c14.42 9.756 33.028 10.79 48.436 2.588 15.362-8.202 24.972-24.168 25.018-41.559l0.521-375.234z" />
<glyph unicode="&#xe905;" glyph-name="search" d="M953.913-52.38c-25.426-26.288-67.34-27.015-93.627-1.589l-190.431 184.075c-4.966 4.767-8.078 10.528-11.191 16.222-55.354-26.022-116.536-41.782-181.89-41.782-234.862 0-425.227 188.048-425.227 420.062-0.067 231.948 190.299 419.997 425.161 419.997s425.227-188.048 425.227-420.062c0-120.444-51.978-228.307-134.216-304.916l184.606-178.381c26.288-25.426 27.015-67.34 1.589-93.627zM779.837 514.215c0 164.543-133.421 297.964-297.964 297.964s-297.964-133.421-297.964-297.964 133.421-297.964 297.964-297.964 297.964 133.421 297.964 297.964z" />
<glyph unicode="&#xe906;" glyph-name="newfolder" horiz-adv-x="1084" d="M662.588 417.882h-60.235v60.235c0 33.31-26.985 60.235-60.235 60.235s-60.235-26.925-60.235-60.235v-60.235h-60.235c-33.25 0-60.235-26.925-60.235-60.235s26.985-60.235 60.235-60.235h60.235v-60.235c0-33.31 26.985-60.235 60.235-60.235s60.235 26.925 60.235 60.235v60.235h60.235c33.31 0 60.235 26.925 60.235 60.235s-26.925 60.235-60.235 60.235zM903.529 779.294h-220.823l-80.354 120.471c0 66.5-114.206 60.235-180.706 60.235h-301.176c-66.5 0-120.471-53.971-120.471-120.471v-60.235c0.783-61.922 3.012-105.050 6.385-135.529-3.795-14.517-6.385-29.455-6.385-45.176v-481.882c0-99.81 80.896-180.706 180.706-180.706h722.824c99.75 0 180.706 80.896 180.706 180.706v481.882c0 99.81-80.956 180.706-180.706 180.706zM210.824 839.529h271.059c4.096-6.927 21.082-31.202 41.261-60.235h-342.438c-19.757 0-38.37-3.915-56.139-9.758 9.457 39.755 43.55 69.993 86.257 69.993zM963.765 116.706c0-33.31-26.925-60.235-60.235-60.235h-722.824c-33.25 0-60.235 26.925-60.235 60.235v481.882c0 33.31 26.985 60.235 60.235 60.235h421.647c14.396 0 28.009-0.241 40.84 0h260.337c33.31 0 60.235-26.925 60.235-60.235v-481.882z" />
<glyph unicode="&#xe907;" glyph-name="download" d="M921.599-63.999h-819.199c-37.702 0-68.267 30.565-68.267 68.267v136.533c0 37.702 30.565 68.267 68.267 68.267s68.267-30.565 68.267-68.267v-68.267h682.666v68.267c0 37.702 30.565 68.267 68.267 68.267s68.267-30.565 68.267-68.267v-136.533c0-37.702-30.565-68.267-68.267-68.267zM625.39 297.813c-11.618-11.509-27.491-18.736-45.053-19.114-0.072-0.478-0.072-0.888-0.072-1.366 0-37.702-30.565-68.267-68.267-68.267s-68.267 30.565-68.267 68.267c0 0.955 0.478 1.707 0.546 2.662-13.11 2.485-24.566 8.347-33.787 16.645l-218.39 207.816c-12.645 11.776-20.528 28.52-20.528 47.104s7.883 35.328 20.49 47.069c12.987 12.125 30.427 19.547 49.6 19.547s36.614-7.422 49.603-19.55l152.465-145.232v438.34c0 37.702 30.565 68.267 68.267 68.267s68.267-30.565 68.267-68.267v-450.559l158.856 159.198c11.981 11.581 28.322 18.717 46.33 18.717 36.835 0 66.696-29.861 66.696-66.696 0-18.059-7.178-34.442-18.834-46.45z" />
<glyph unicode="&#xe908;" glyph-name="border" d="M896 960h-768c-70.699 0-128-57.301-128-128v-768c0-70.699 57.301-128 128-128h768c70.699 0 128 57.301 128 128v768c0 70.699-57.301 128-128 128zM981.333 42.667c0-32.555-40.448-64-64-64h-810.667c-23.552 0-64 29.653-64 64l1.28 809.387c0 23.552 18.773 64 64 64l809.387 1.28c23.552 0 64-34.347 64-64v-810.667z" />
<glyph unicode="&#xe909;" glyph-name="face" d="M512-64c-282.77 0-512 229.23-512 512s229.23 512 512 512c282.77 0 512-229.23 512-512s-229.23-512-512-512zM512 832c-212.078 0-384-171.923-384-384s171.923-384 384-384c212.078 0 384 171.923 384 384s-171.923 384-384 384zM681.601 383.999c-3.033-0.338-6.551-0.531-10.112-0.531-53.303 0-96.512 43.211-96.512 96.512s43.211 96.512 96.512 96.512c53.295 0 96.501-43.199 96.512-96.492 0.072-1.362 0.114-2.955 0.114-4.557 0-48.797-38.163-88.68-86.27-91.433zM342.015 383.999c-3.168-0.369-6.84-0.579-10.56-0.579-53.337 0-96.576 43.239-96.576 96.576s43.239 96.576 96.576 96.576c53.337 0 96.575-43.238 96.576-96.573 0.077-1.404 0.122-3.047 0.122-4.7 0-48.639-37.968-88.409-85.883-91.289z" />
<glyph unicode="&#xe90a;" glyph-name="android" d="M885.266 266.459h-11.89c-30.709 5.072-53.845 31.431-53.845 63.192 0 2.591 0.153 5.147 0.453 7.658l-0.029 226.126c-0.269 2.207-0.424 4.763-0.424 7.354 0 31.762 23.134 58.119 53.473 63.14l12.263 0.051c30.709-5.072 53.845-31.431 53.845-63.192 0-2.591-0.153-5.147-0.453-7.658l0.029-226.126c0.269-2.207 0.424-4.763 0.424-7.354 0-31.762-23.134-58.119-53.473-63.14zM728.302 135.608h-45.058v-129.088c0.269-2.204 0.423-4.756 0.423-7.344 0-31.782-23.164-58.152-53.529-63.15l-12.205-0.051c-30.709 5.072-53.845 31.431-53.845 63.192 0 2.591 0.153 5.147 0.453 7.658l-0.029 128.784h-100.414v-127.607c0.269-2.207 0.424-4.763 0.424-7.354 0-31.762-23.134-58.119-53.473-63.14l-12.263-0.051c-30.709 5.072-53.845 31.431-53.845 63.192 0 2.591 0.153 5.147 0.453 7.658l-0.029 127.305h-49.154c-30.293 0.604-54.62 25.304-54.62 55.687 0 0.244 0.001 0.487 0.005 0.729v446.619h541.381v-446.656c0.001-0.171 0.003-0.373 0.003-0.576 0-30.441-24.421-55.179-54.741-55.689zM385.985 872.582l-49.325 73.96c-0.777 1.164-1.24 2.595-1.24 4.134 0 2.473 1.196 4.667 3.040 6.035l1.328 0.924c1.117 0.803 2.513 1.284 4.022 1.284 2.428 0 4.564-1.247 5.806-3.135l51.218-76.261c32.314 13.889 69.926 21.965 109.425 21.965 41.573 0 81.055-8.947 116.628-25.020l51.578 80.371c1.271 1.901 3.409 3.137 5.836 3.137 1.5 0 2.889-0.472 4.028-1.275l1.287-0.896c1.865-1.383 3.060-3.576 3.060-6.050 0-1.539-0.463-2.969-1.257-4.162l-51.868-77.573c74.141-38.157 126.794-109.051 139.101-193.052l-537.286-1.404c12.85 87.4 67.726 159.653 143.084 196.453zM628.116 758.799c0.255-0.008 0.553-0.013 0.853-0.013 15.27 0 27.649 12.379 27.649 27.649s-12.379 27.649-27.649 27.649c-15.266 0-27.641-12.371-27.649-27.636-0.001-0.103-0.003-0.224-0.003-0.345 0-14.891 11.943-26.992 26.775-27.247zM396.908 758.799c0.255-0.008 0.553-0.013 0.853-0.013 15.27 0 27.649 12.379 27.649 27.649s-12.379 27.649-27.649 27.649c-15.266 0-27.641-12.371-27.649-27.636-0.001-0.103-0.003-0.224-0.003-0.345 0-14.911 11.977-27.025 26.835-27.248zM150.511 267.767h-11.834c-30.709 5.072-53.845 31.431-53.845 63.192 0 2.591 0.153 5.147 0.453 7.658l-0.029 226.068c-0.269 2.207-0.424 4.763-0.424 7.354 0 31.762 23.134 58.119 53.473 63.14l12.263 0.051c30.709-5.072 53.845-31.431 53.845-63.192 0-2.591-0.153-5.147-0.453-7.658l0.029-226.068c0.265-2.191 0.417-4.727 0.417-7.298 0-31.759-23.132-58.115-53.467-63.14z" />
<glyph unicode="&#xe90b;" glyph-name="apple" d="M829.835 505.547c-8.599-20.162-14.326-43.534-15.976-68.024-0.388-5.381-0.588-10.885-0.588-16.436 0-19.19 2.397-37.822 6.907-55.61 5.962-23.187 15.467-44.93 27.908-64.632 12.805-20.216 28.777-38.256 47.214-53.409 19.625-16.132 41.956-29.123 66.201-38.189-19.027-48.153-41.86-88.935-68.24-127.075-8.286-12.264-19.062-27.674-30.679-42.843-32.568-53.877-86.524-92.026-149.808-102.814l-2.128-0.181c-67.299-0.602-85.659 41.776-173.906 43.161-1.926 0-3.912 0-6.020 0-90.294-0.422-111.423-40.933-174.568-43.161-67.709 6.177-125.372 44.25-158.4 98.882-10.811 14.347-20.443 28.011-29.473 41.435q-15.65 23.176-28.955 47.014c-15.756 27.454-30.769 59.674-43.096 93.193-11.771 31.982-20.845 64.872-27.073 98.759-5.701 30.989-8.64 62.4-8.64 94.498 0 1.234 0.004 2.469 0.013 3.702 0.121 30.684 3.712 60.658 10.401 89.442 5.918 25.714 15.683 50.81 28.565 73.93 13.050 22.458 29.018 43.065 47.389 61.248 39.78 41.129 92.259 69.703 151.104 79.39 10.309 1.49 20.411 2.232 30.68 2.262 51.394-3.688 99.027-15.6 142.982-34.444 15.384-5.193 36.438-9.015 58.324-9.436 33.752 2.060 64.916 10.188 93.308 23.296 30.731 12.586 68.251 20.371 107.563 20.583 20.796-0.095 40.783-3.033 59.727-8.445 56.709-16.909 105.716-50.429 141.711-94.912-24.204-13.615-45.208-29.931-62.993-49.255-16.194-17.693-29.43-38.129-38.934-60.534zM497.011 713.464c-0.879 7.122-1.38 15.367-1.38 23.728 0 53.43 20.474 102.077 54.003 138.525 39.997 45.621 96.047 76.571 159.29 84.016 1.979-6.937 2.437-15.109 2.437-23.386 0-54.571-19.831-104.512-52.678-143.009-38.066-47.71-96.136-78.571-161.458-79.871z" />
<glyph unicode="&#xe90c;" glyph-name="device" d="M832-64h-640.001c-70.692 0-128 57.308-128 128v768.001c0 70.692 57.308 128 128 128h640.001c70.692 0 128-57.308 128-128v-768.001c0-70.692-57.308-128-128-128zM832 768c0 35.346-28.655 64.001-64.001 64.001h-512c-35.346 0-64.001-28.655-64.001-64.001v-320h640.001v320zM832 320h-640.001v-192c0-35.346 28.655-64.001 64.001-64.001h512c35.346 0 64.001 28.655 64.001 64.001v192zM512 128c-35.346 0-64.001 28.655-64.001 64.001s28.655 64.001 64.001 64.001c35.346 0 64.001-28.655 64.001-64.001s-28.655-64.001-64.001-64.001z" />
<glyph unicode="&#xe90d;" glyph-name="check" d="M1005.683 708.592l-547.974-646.914c-13.854-16.691-34.607-27.242-57.825-27.242-19.992 0-38.158 7.822-51.601 20.575l-309.674 287.351c-23.484 35.892-37.454 79.853-37.454 127.078 0 25.774 4.162 50.578 11.851 73.774 29.121 13.297 64.037 22.052 101.002 22.052s71.881-8.757 102.793-24.307l192.402-193.118 415.14 498.15c19.907 8.386 43.051 13.259 67.329 13.259 40.513 0 77.86-13.566 107.74-36.406 15.707-14.993 25.743-36.591 25.743-60.534 0-20.501-7.361-39.283-19.581-53.848z" />
<glyph unicode="&#xe90e;" glyph-name="cancel" d="M698.942 450.133l283.747-283.611c24.206-24.206 39.183-57.661 39.183-94.604 0-73.899-59.902-133.785-133.785-133.785-36.943 0-70.396 14.975-94.604 39.183l-283.611 283.747-283.611-283.747c-24.206-24.206-57.661-39.183-94.604-39.183-73.899 0-133.785 59.902-133.785 133.785 0 36.943 14.975 70.396 39.183 94.604l283.747 283.611-283.747 283.611c-24.206 24.206-39.183 57.661-39.183 94.604 0 73.899 59.902 133.785 133.785 133.785 36.943 0 70.396-14.975 94.604-39.183l283.611-283.747 283.611 283.747c24.206 24.206 57.661 39.183 94.604 39.183 73.899 0 133.785-59.902 133.785-133.785 0-36.943-14.975-70.396-39.183-94.604z" />
<glyph unicode="&#xe90f;" glyph-name="print" d="M873.412 116.705h-60.236v-120.47c0-33.267-26.969-60.236-60.236-60.236h-481.882c-33.267 0-60.236 26.969-60.236 60.236v120.47h-60.236c-66.534 0-120.47 53.937-120.47 120.47v361.412c0 66.534 53.937 120.47 120.47 120.47h120.47v180.706c0 33.267 26.969 60.236 60.236 60.236h361.412c33.267 0 60.236-26.969 60.236-60.236v-180.706h120.47c66.534 0 120.47-53.937 120.47-120.47v-361.412c0-66.534-53.937-120.47-120.47-120.47zM391.53 56.471h240.942c33.267 0 60.236 26.969 60.236 60.236h-361.412c0-33.267 26.969-60.236 60.236-60.236zM632.47 779.295c0 33.267-26.969 60.236-60.236 60.236h-120.47c-33.267 0-60.236-26.969-60.236-60.236v-60.236h240.942v60.236zM873.412 538.353c0 33.267-26.969 60.236-60.236 60.236h-602.354c-33.267 0-60.236-26.969-60.236-60.236v-240.942c0-33.267 26.969-60.236 60.236-60.236h602.354c33.267 0 60.236 26.969 60.236 60.236v240.942z" />
<glyph unicode="&#xe910;" glyph-name="order" d="M1013.404 338.867l-122.394-149.364c-7.959-9.446-19.796-15.406-33.024-15.406-2.578 0-5.103 0.227-7.556 0.66-1.913-22.649-20.814-40.187-43.811-40.187-23.85 0-43.294 18.862-44.227 42.483-10.574 1.411-19.849 6.14-26.885 13.124l-137.265 142.73c-7.494 7.613-12.121 18.065-12.121 29.6 0 12.868 5.759 24.39 14.84 32.13 8.325 7.106 19.137 11.401 30.951 11.401 13.34 0 25.402-5.475 34.060-14.301l95.924-99.643v424.706c0 24.742 20.058 44.801 44.801 44.801s44.801-20.058 44.801-44.801v-437.474l94.349 115.136c8.081 10.419 20.603 17.062 34.676 17.062 24.173 0 43.769-19.596 43.769-43.769 0-11.093-4.127-21.223-10.928-28.936zM814.894 225.791c-0.269 0-0.492-0.224-0.761-0.269 0-1.030-0.314-1.971-0.224-2.957l1.21-0.269c0.134 1.164-0.448 2.33-0.18 3.494zM493.095 134.398h-448.003c-24.742 0-44.801 20.058-44.801 44.801s20.058 44.801 44.801 44.801h448.003c24.742 0 44.801-20.058 44.801-44.801s-20.058-44.801-44.801-44.801zM493.095 403.199h-448.003c-24.742 0-44.801 20.058-44.801 44.801s20.058 44.801 44.801 44.801h448.003c24.742 0 44.801-20.058 44.801-44.801s-20.058-44.801-44.801-44.801zM493.095 672.001h-448.003c-24.742 0-44.801 20.058-44.801 44.801s20.058 44.801 44.801 44.801h448.003c24.742 0 44.801-20.058 44.801-44.801s-20.058-44.801-44.801-44.801z" />
<glyph unicode="&#xe911;" glyph-name="grid" d="M903.529-64.001h-240.942c-66.534 0-120.47 53.936-120.47 120.47v240.942c0 66.534 53.936 120.47 120.47 120.47h240.942c66.534 0 120.47-53.936 120.47-120.47v-240.942c0-66.534-53.936-120.47-120.47-120.47zM903.529 237.177c0 33.267-26.969 60.236-60.236 60.236h-120.47c-33.267 0-60.236-26.969-60.236-60.236v-120.47c0-33.267 26.969-60.236 60.236-60.236h120.47c33.267 0 60.236 26.969 60.236 60.236v120.47zM903.529 478.117h-240.942c-66.534 0-120.47 53.936-120.47 120.47v240.942c0 66.534 53.936 120.47 120.47 120.47h240.942c66.534 0 120.47-53.936 120.47-120.47v-240.942c0-66.534-53.936-120.47-120.47-120.47zM903.529 779.295c0 33.267-26.969 60.236-60.236 60.236h-120.47c-33.267 0-60.236-26.969-60.236-60.236v-120.47c0-33.267 26.969-60.236 60.236-60.236h120.47c33.267 0 60.236 26.969 60.236 60.236v120.47zM361.411-64.001h-240.942c-66.534 0-120.47 53.936-120.47 120.47v240.942c0 66.534 53.936 120.47 120.47 120.47h240.942c66.534 0 120.47-53.936 120.47-120.47v-240.942c0-66.534-53.936-120.47-120.47-120.47zM361.411 237.177c0 33.267-26.969 60.236-60.236 60.236h-120.47c-33.267 0-60.236-26.969-60.236-60.236v-120.47c0-33.267 26.969-60.236 60.236-60.236h120.47c33.267 0 60.236 26.969 60.236 60.236v120.47zM361.411 478.117h-240.942c-66.534 0-120.47 53.936-120.47 120.47v240.942c0 66.534 53.936 120.47 120.47 120.47h240.942c66.534 0 120.47-53.936 120.47-120.47v-240.942c0-66.534-53.936-120.47-120.47-120.47zM361.411 779.295c0 33.267-26.969 60.236-60.236 60.236h-120.47c-33.267 0-60.236-26.969-60.236-60.236v-120.47c0-33.267 26.969-60.236 60.236-60.236h120.47c33.267 0 60.236 26.969 60.236 60.236v120.47z" />
<glyph unicode="&#xe912;" glyph-name="right" d="M769.292 389.37l-404.265-426.011c-14.446-15.505-34.984-25.17-57.776-25.17s-43.33 9.667-57.733 25.124c-14.862 15.954-23.961 37.364-23.961 60.898s9.096 44.944 23.966 60.903l346.497 365.050-346.545 365.103c-14.82 15.905-23.916 37.316-23.916 60.85s9.096 44.944 23.966 60.903c14.382 15.481 34.922 25.17 57.728 25.17s43.346-9.688 57.73-25.175l404.31-425.945c14.82-15.905 23.916-37.316 23.916-60.85s-9.096-44.944-23.966-60.903z" />
<glyph unicode="&#xe913;" glyph-name="more" d="M884.364 308.364c-77.119 0-139.636 62.518-139.636 139.636s62.518 139.636 139.636 139.636c77.119 0 139.636-62.518 139.636-139.636s-62.518-139.636-139.636-139.636zM884.364 494.546c-25.706 0-46.546-20.84-46.546-46.546s20.84-46.546 46.546-46.546c25.706 0 46.546 20.84 46.546 46.546s-20.84 46.546-46.546 46.546zM512 308.364c-77.119 0-139.636 62.518-139.636 139.636s62.518 139.636 139.636 139.636c77.119 0 139.636-62.518 139.636-139.636s-62.518-139.636-139.636-139.636zM512 494.546c-25.706 0-46.546-20.84-46.546-46.546s20.84-46.546 46.546-46.546c25.706 0 46.546 20.84 46.546 46.546s-20.84 46.546-46.546 46.546zM139.636 308.364c-77.119 0-139.636 62.518-139.636 139.636s62.518 139.636 139.636 139.636c77.119 0 139.636-62.518 139.636-139.636s-62.518-139.636-139.636-139.636zM139.636 494.546c-25.706 0-46.546-20.84-46.546-46.546s20.84-46.546 46.546-46.546c25.706 0 46.546 20.84 46.546 46.546s-20.84 46.546-46.546 46.546z" />
<glyph unicode="&#xe914;" glyph-name="copy" horiz-adv-x="964" d="M120.471 237.176v542.119c0 33.31 26.985 60.235 60.235 60.235h481.882c33.31 0 60.235-26.925 60.235-60.235v-361.412h120.471v421.647c0 66.5-53.971 120.471-120.471 120.471h-602.354c-66.5 0-120.471-53.971-120.471-120.471v-662.589c0-66.5 53.971-120.471 120.471-120.471h361.412v120.471h-301.176c-33.25 0-60.235 26.925-60.235 60.235zM903.529 176.941h-60.235v60.235c0 33.31-26.925 60.235-60.235 60.235s-60.235-26.925-60.235-60.235v-60.235h-60.235c-33.31 0-60.235-26.925-60.235-60.235s26.925-60.235 60.235-60.235h60.235v-60.235c0-33.31 26.925-60.235 60.235-60.235s60.235 26.925 60.235 60.235v60.235h60.235c33.31 0 60.235 26.925 60.235 60.235s-26.925 60.235-60.235 60.235zM301.176 719.059c-33.25 0-60.235-26.925-60.235-60.235s26.985-60.235 60.235-60.235h301.176c33.31 0 60.235 26.925 60.235 60.235s-26.925 60.235-60.235 60.235h-301.176zM481.882 478.118h-180.706c-33.25 0-60.235-26.925-60.235-60.235s26.985-60.235 60.235-60.235h180.706c33.25 0 60.235 26.925 60.235 60.235s-26.985 60.235-60.235 60.235z" />
<glyph unicode="&#xe915;" glyph-name="upload" d="M892.655 277.142c7.851-0.751 15.292-2.321 22.596-5.461 17.203-7.509 30.788-22.050 37.069-39.731 2.116-5.939 3.14-11.947 3.823-18.227 1.57-47.036 0.137-94.14 0.137-141.175-0.273-7.851-1.297-15.428-3.959-22.869-6.827-19.183-22.255-34.611-41.438-41.438-5.939-2.116-11.947-3.14-18.227-3.823-274.432-9.353-549.205-0.137-823.842-0.137-7.851 0.273-15.428 1.297-22.869 3.959-19.183 6.827-34.611 22.255-41.438 41.438-2.116 5.939-3.14 11.947-3.823 18.227-1.57 47.036-0.137 94.071-0.137 141.175 0.41 10.991 2.526 21.504 7.646 31.403 4.301 8.26 10.308 15.633 17.545 21.572 18.295 14.882 43.691 19.251 65.946 11.332 5.871-2.048 11.401-4.983 16.521-8.533 6.349-4.506 11.878-10.035 16.384-16.452 6.281-8.875 10.377-19.251 11.878-30.037 0.546-4.096 0.478-5.188 0.614-9.284v-68.267h682.667v68.267c0.273 7.851 1.297 15.428 3.959 22.869 6.827 19.183 22.255 34.611 41.438 41.438 5.939 2.116 11.947 3.14 18.227 3.755 4.71 0.205 4.642 0.205 9.284 0zM478.413 960.014c0.341 0 0.614 0 0.956-0.068h1.092c0.205 0 0.41 0 0.614 0l0.887-0.068c0.273 0 0.546 0 0.751 0 1.775-0.205 3.55-0.341 5.257-0.614 5.12-0.751 10.035-1.911 14.882-3.823 2.116-0.751 4.164-1.707 6.212-2.731 1.229-0.614 2.458-1.229 3.686-1.98l1.434-0.887c3.755-2.253 7.305-4.983 10.513-7.919l0.068-0.068c0.683-0.614 1.297-1.229 1.911-1.843 93.457-89.839 185.139-181.589 274.978-275.046 7.236-8.192 12.766-17.613 15.633-28.194 1.911-6.963 2.731-14.268 2.389-21.504-1.229-24.781-16.316-47.445-38.639-58.163-7.373-3.482-15.36-5.734-23.484-6.417-9.011-0.819-18.159 0.205-26.761 2.935-9.626 3.072-18.091 8.26-25.6 14.882-52.838 50.722-105.062 102.059-156.74 154.010-0.068-102.878-1.775-205.756-1.775-308.634-0.273-12.083-3.072-23.62-9.148-34.133-3.55-6.212-8.124-11.81-13.449-16.589-17.954-16.179-43.759-21.709-66.765-14.199-7.919 2.594-15.36 6.622-21.845 11.878s-12.015 11.674-16.179 18.91c-5.461 9.421-8.192 19.729-9.011 30.515-2.799 104.311-1.98 208.691-1.092 313.071-51.951-52.224-104.448-103.834-157.491-154.829-7.509-6.622-16.043-11.81-25.668-14.882-8.602-2.731-17.749-3.755-26.761-2.935-8.124 0.683-16.111 2.935-23.415 6.417-6.554 3.14-12.561 7.305-17.818 12.356-17.886 17.135-25.054 43.418-18.5 67.311 2.935 10.581 8.397 20.002 15.633 28.194 90.453 94.14 182.818 186.505 276.958 276.89 0.683 0.683 1.434 1.297 2.116 1.911l0.205 0.137 0.068 0.068h0.068l0.205 0.205c1.707 1.502 3.55 2.867 5.461 4.096 0.887 0.614 1.775 1.229 2.662 1.775 0.478 0.273 1.024 0.614 1.502 0.887 0.683 0.41 1.365 0.751 2.048 1.092 0.478 0.273 0.956 0.546 1.502 0.819 0.887 0.41 1.775 0.819 2.662 1.229 3.823 1.707 7.714 3.004 11.742 3.959h0.205l0.068 0.068h0.205l0.41 0.137h0.205l0.41 0.137c2.458 0.478 4.915 0.887 7.441 1.229 0.546 0.068 1.092 0.137 1.638 0.137 0.683 0.068 1.365 0.137 2.048 0.205h0.819c0.137 0 0.341 0 0.546 0h1.092c0.341 0.068 0.614 0.068 0.956 0.068z" />
<glyph unicode="&#xe916;" glyph-name="yunguanjia" d="M383.936 160.096h-319.936c-6.464 0.256-12.672 0.96-18.88 2.816-18.432 5.696-33.664 19.84-40.704 37.824-2.944 7.552-4.096 15.296-4.416 23.36v640c0.32 8.064 1.472 15.808 4.416 23.36 7.040 17.984 22.272 32.128 40.704 37.824 6.208 1.856 12.416 2.56 18.88 2.816 150.144 0 751.616 0 900.8-0.192 6.4-0.704 12.544-1.856 18.56-4.224 16.448-6.464 29.76-19.776 36.224-36.224 2.944-7.552 4.096-15.296 4.416-23.36v-640c-0.32-8.064-1.472-15.808-4.416-23.36-7.040-17.984-22.272-32.128-40.704-37.824-6.208-1.856-12.416-2.56-18.88-2.816h-320c0.32-20.928 0.704-41.856 0.832-62.72 22.080-0.384 44.16-0.832 66.24-1.344 10.432-0.768 20.352-3.456 29.376-8.768 5.312-3.136 10.176-7.040 14.4-11.584 16.448-17.664 21.568-43.776 12.992-66.304-2.56-6.72-6.272-13.056-10.944-18.56-5.312-6.272-11.84-11.584-19.136-15.36-8.384-4.416-17.344-6.592-26.688-7.296-131.136-0.256-262.272 0-390.144 0-9.344 0.704-18.304 2.88-26.688 7.296-7.296 3.776-13.824 9.088-19.136 15.36-4.672 5.504-8.384 11.84-10.944 18.56-8.576 22.528-3.456 48.64 12.992 66.304 4.224 4.544 9.088 8.448 14.4 11.584 9.024 5.312 18.944 8 29.376 8.768 22.080 0.512 44.096 0.96 66.176 1.344-0.128 20.928 0.064 41.792 0.832 62.72zM128 800.096v-512h768v512c-256 0-512 0-768 0z" />
<glyph unicode="&#xe917;" glyph-name="iPad" horiz-adv-x="896" d="M720.454 956.198c14.080-1.088 27.648-3.84 40.704-9.344 30.464-12.864 54.784-38.4 66.176-69.504 4.16-11.392 6.272-23.104 7.168-35.2 6.080-242.048 0.128-484.224 0.128-726.336-0.32-11.904-1.856-23.552-5.376-34.944-10.496-33.536-35.712-61.376-68.096-75.072-13.056-5.504-26.624-8.256-40.704-9.344-199.36-4.992-398.848-0.128-598.336-0.128-11.904 0.32-23.552 1.856-34.944 5.44-33.536 10.432-61.376 35.712-75.072 68.032-5.504 13.056-8.256 26.624-9.344 40.704-6.144 242.048-0.128 484.224-0.128 726.336 0.32 11.904 1.856 23.552 5.44 34.944 10.432 33.536 35.712 61.376 68.032 75.072 13.056 5.504 26.624 8.256 40.704 9.344 201.152 5.056 402.496 5.056 603.648 0zM418.63 138.79c-25.664 0-46.464-20.8-46.464-46.464s20.8-46.464 46.464-46.464c25.664 0 46.464 20.8 46.464 46.464s-20.8 46.464-46.464 46.464zM706.63 828.326h-576v-640h576v640z" />
<glyph unicode="&#xe918;" glyph-name="win" d="M509.422 427.046h431.633v-381.443l-431.633 60.228v321.215zM63.351 427.091h314.244v-295.199l-314.244 38.090v257.109zM63.349 787.426v-235.598h320.027v274.389l-320.027-38.791zM509.422 551.837h431.633v344.825l-431.633-50.19v-294.635z" />
<glyph unicode="&#xe919;" glyph-name="mail" d="M843.295-3.765h-662.588c-99.801 0-180.706 80.905-180.706 180.706v542.118c0 99.801 80.905 180.706 180.706 180.706h662.588c99.801 0 180.706-80.905 180.706-180.706v-542.118c0-99.801-80.905-180.706-180.706-180.706zM120.471 237.177c0-66.534 53.936-120.47 120.47-120.47h542.118c66.534 0 120.47 53.936 120.47 120.47v300.092l-379.844-193.295-4.818 8.554-8.132-13.673-390.264 224.979v-326.656zM783.059 779.295h-542.118c-47.253-0.089-88.093-27.45-107.629-67.179l382.783-235.323 384.422 208.053c-12.337 54.373-60.216 94.367-117.45 94.449z" />
<glyph unicode="&#xe91a;" glyph-name="sync" horiz-adv-x="1317" d="M1074.5 128h-258.496l2.496-128h-320v128h-256c-70.72 0-128 57.28-128 128v576c0 70.72 57.28 128 128 128h832c70.72 0 128-57.28 128-128v-576c0-70.72-57.28-128-128-128zM1074.5 832h-832v-576h832v576zM658.5 768c62.976 0 119.68-26.176 160.384-68.032l-107.456-78.016c-15.36 10.496-32.896 18.048-52.928 18.048-52.992 0-96-43.008-96-96 0-9.344 2.816-17.792 5.312-26.304l-106.752-77.44c-16.384 31.168-26.56 66.112-26.56 103.744 0 123.712 100.288 224 224 224zM658.5 448c52.992 0 96 43.008 96 96 0 9.344-2.816 17.792-5.312 26.304l106.752 77.44c16.384-31.168 26.56-66.112 26.56-103.744 0-123.712-100.288-224-224-224-62.976 0-119.68 26.176-160.384 68.032l107.456 78.016c15.36-10.496 32.896-18.048 52.928-18.048zM946.5-64h-576v64h576v-64z" />
<glyph unicode="&#xe91b;" glyph-name="share-cancel" d="M512 857.6c-226.216 0-409.6-183.384-409.6-409.6s183.384-409.6 409.6-409.6c226.216 0 409.6 183.384 409.6 409.6s-183.384 409.6-409.6 409.6zM512 755.2c169.662 0 307.2-137.538 307.2-307.2s-137.538-307.2-307.2-307.2c-169.662 0-307.2 137.538-307.2 307.2s137.538 307.2 307.2 307.2zM258.56 629.043l72.397 72.397 434.483-434.483-72.397-72.397z" />
<glyph unicode="&#xe91c;" glyph-name="qrcode" d="M51.2 908.8v-461.107h92.16v461.107h-92.16zM512.307 908.8h-461.107v-92.16h461.107v92.16zM512.307 539.699h-461.107v-92.16h461.107v92.16zM420.147 908.8h92.16v-461.107h-92.16v461.107zM235.008 724.838v-92.16h92.16v92.16h-92.16zM833.894 908.8v-367.923h138.906v367.923h-138.906zM605.030 908.8v-507.238h137.933v507.238h-137.933zM833.894 494.95v-185.19h138.906v185.037h-138.906zM604.518 354.97h-553.318v-137.933h553.318v137.933zM51.2 126.054v-138.854h277.811v138.854h-277.811zM420.403 126.054v-138.854h183.347v138.854h-183.347zM972.8 264.141h-276.992v-276.941h276.992v277.094z" />
<glyph unicode="&#xe91d;" glyph-name="beauty" d="M280.026 193.45c-8.67 6.739-19.563 10.751-31.394 10.751-16.428 0-31.049-7.737-40.504-19.881l-147.471-138.43c-6.717-8.663-10.715-19.539-10.715-31.349 0-28.279 22.925-51.204 51.204-51.204 16.469 0 31.122 7.775 40.576 19.972l147.47 138.428c6.675 8.648 10.647 19.489 10.647 31.259 0 16.449-7.757 31.086-19.928 40.54zM258.208 749.068c0.962-62.265 10.096-122.547 24.982-174.074 2.891-10.269 4.437-21.102 4.437-32.295 0-38.042-17.86-71.912-45.912-93.88l-149.669-149.445c49.713 0.851 98.025 7.448 139.941 18.22 120.525 0.461 255.037-309.292 175.974-195.072l79.063-114.22c20.088 39.59 33.212 83.311 37.878 131.064 31.744 84.941 321.485 127.027 159.232 82.534l162.253 44.493c0 0-26.522 55.706-70.667 147.874-22.644 17.642-37.209 45.169-37.209 76.098 0 11.479 2.006 22.49 5.476 32.028l8.685 207.755c-57.046-22.065-116.081-40.135-185.34-55.56-16.968-18.627-41.42-30.318-68.603-30.318-17.85 0-34.522 5.041-48.271 13.547l-192.256 91.802zM350.362 607.642s167.629-65.536 291.379-34.048c18.893 49.715 0-102.4 0-102.4l51.2-153.6h-102.4l-102.4-102.4-51.2 102.4-151.501 73.267s155.443 97.28 64.768 216.781zM590.387 931.994c-28.277 0-51.2-22.923-51.2-51.2v-51.2c0-28.277 22.923-51.2 51.2-51.2s51.2 22.923 51.2 51.2v51.2c0 28.277-22.923 51.2-51.2 51.2zM885.029 870.423c-7.585 4.443-16.416 6.99-25.841 6.99-18.851 0-35.322-10.187-44.34-25.598l-25.47-44.103c-4.548-7.649-7.16-16.585-7.16-26.13 0-28.277 22.923-51.2 51.2-51.2 18.971 0 35.531 10.317 44.509 25.894l25.469 44.098c4.443 7.585 6.99 16.416 6.99 25.841 0 18.851-10.187 35.322-25.598 44.34zM971.692 568.219c-5.95 21.687-25.804 37.622-49.38 37.622-4.696 0-9.244-0.632-13.205-1.732l-49.811-13.334c-22.348-5.5-38.923-25.674-38.923-49.719 0-28.277 22.923-51.2 51.2-51.2 5.204 0 10.227 0.776 14.596 2.125l49.819 13.294c21.669 5.961 37.587 25.807 37.587 49.371 0 4.718-0.638 9.286-1.748 13.265z" />
<glyph unicode="&#xe91e;" glyph-name="edit" d="M240.941 176.941h301.176l481.882 542.118-240.941 240.941-542.118-542.118v-240.941zM783.059 839.529l120.471-120.471-90.353-90.353-114.447 114.447 84.329 96.376zM361.412 357.647l281.118 321.235 110.411-110.411-271.059-271.059-180.706-60.235 60.235 120.471zM903.529 116.706c0-33.25-26.985-60.235-60.235-60.235h-662.588c-33.25 0-60.235 26.985-60.235 60.235v542.118c0 33.25 26.985 60.235 60.235 60.235h180.706v120.471h-240.941c-66.56 0-120.471-53.911-120.471-120.471v-662.588c0-66.56 53.911-120.471 120.471-120.471h783.059c66.56 0 120.471 53.911 120.471 120.471v301.176h-120.471v-240.941z" />
<glyph unicode="&#xe91f;" glyph-name="save-disk" horiz-adv-x="1152" d="M640 128c0-35.328-28.672-64-64-64h-384c-35.328 0-64 28.672-64 64v640c0 35.328 28.672 64 64 64h384c35.328 0 64-28.672 64-64v-128h128v192c0 70.72-57.344 128-128 128h-512c-70.72 0-128-57.28-128-128v-768c0-70.72 57.28-128 128-128h512c70.656 0 128 57.28 128 128v128h-128v-64zM1121.472 501.184c5.376 6.72 9.536 14.464 11.904 23.296 9.152 34.176-11.136 69.248-45.248 78.4l-146.624 130.752c-17.664 30.592-56.832 41.088-87.424 23.424s-41.088-56.832-23.424-87.424l185.728-157.632h-504.384c-35.328 0-64-28.672-64-64s28.672-64 64-64h456l-83.008-120.512c-34.176-9.152-54.4-44.224-45.248-78.4s44.224-54.4 78.4-45.248l194.496 229.248c4.608 8 7.104 16.576 8 25.216 18.432 11.2 31.36 30.528 31.36 53.696 0 22.784-12.608 41.856-30.528 53.184z" />
<glyph unicode="&#xe920;" glyph-name="list" horiz-adv-x="1170" d="M73.143 813.714h1024c40.375 0 73.143 32.768 73.143 73.143s-32.768 73.143-73.143 73.143h-1024c-40.375 0-73.143-32.768-73.143-73.143s32.768-73.143 73.143-73.143zM1097.143 521.143h-1024c-40.375 0-73.143-32.768-73.143-73.143s32.768-73.143 73.143-73.143h1024c40.375 0 73.143 32.768 73.143 73.143s-32.768 73.143-73.143 73.143zM1097.143 82.286h-1024c-40.375 0-73.143-32.768-73.143-73.143s32.768-73.143 73.143-73.143h1024c40.375 0 73.143 32.768 73.143 73.143s-32.768 73.143-73.143 73.143z" />
<glyph unicode="&#xe921;" glyph-name="history" d="M896 960h-640c-70.656 0-128-57.28-128-128v-64c-70.72 0-128-57.28-128-128v-576c0-70.72 57.28-128 128-128h576c70.656 0 128 57.28 128 128h64c70.72 0 128 57.28 128 128v640c0 70.72-57.28 128-128 128zM704 128c0-35.328-28.672-64-64-64h-448c-35.328 0-64 28.672-64 64v448c0 35.328 28.672 64 64 64h448c35.328 0 64-28.672 64-64v-448zM896 256c0-35.328-28.672-64-64-64v448c0 70.72-57.344 128-128 128h-448c0 35.328 28.672 64 64 64h512c35.328 0 64-28.672 64-64v-512z" />
<glyph unicode="&#xe922;" glyph-name="notice" horiz-adv-x="910" d="M213.621 134.683h-156.843c-8.533 0.284-16.725 1.82-24.462 5.518-19.399 9.216-32.142 29.184-32.427 50.574-0.114 8.647 1.934 16.668 5.234 24.576l108.544 235.748v125.383l0.341 6.372-0.341 6.542c0.057 6.258 0.171 12.516 0.455 18.773 2.389 42.496 12.174 84.139 29.753 122.994 25.998 57.401 68.039 107.179 120.263 142.507 20.537 13.881 42.553 25.316 65.593 34.532 37.035 14.905 76.686 22.414 116.508 23.666 4.38 0.114 8.761 0.114 13.141 0.114 14.507-0.284 28.9-1.252 43.292-3.3 31.972-4.494 63.317-13.54 92.786-26.852 54.955-24.86 102.912-64.455 137.842-113.55 15.986-22.471 29.013-46.763 39.253-72.306 14.848-37.035 22.414-76.743 23.666-116.508l0.114-4.38c0-6.144 0-6.087-0.341-12.231l0.341-6.428v-125.326l108.544-235.748c3.3-7.908 5.348-15.929 5.234-24.576-0.284-21.39-13.028-41.358-32.427-50.574-7.737-3.698-15.929-5.177-24.462-5.518h-156.843c-1.422-4.153-3.015-8.249-4.722-12.345-2.901-6.997-6.087-13.881-9.557-20.537-31.46-60.302-86.869-106.553-151.836-126.521-24.348-7.509-49.778-11.264-75.264-11.264s-50.916 3.755-75.207 11.264c-65.024 19.968-120.434 66.219-151.893 126.521-3.47 6.656-6.713 13.54-9.557 20.537-1.707 4.096-3.3 8.192-4.722 12.345zM568.721 134.683h-227.442c7.851-10.411 17.067-19.797 27.477-27.705 32.654-24.974 75.378-34.588 115.655-26.169 12.402 2.617 24.462 6.94 35.726 12.743 18.66 9.671 34.645 23.324 47.559 39.765l1.024 1.365zM652.063 248.461h112.356l-76.629 166.4c-1.593 3.812-3.015 7.566-3.925 11.605-0.853 4.039-1.138 8.078-1.308 12.174v134.94c-0.228 4.665-0.284 4.665-0.398 9.273 0.114 3.584 0.398 7.168 0.398 10.752-0.512 25.714-4.949 51.086-13.824 75.264-20.878 57.003-64.853 104.22-120.149 129.252-26.738 12.117-55.467 18.66-84.764 19.911-3.925 0.171-7.851 0.171-11.776 0.171-26.624-0.512-52.907-5.291-77.824-14.734-60.245-22.926-109.113-71.737-131.982-132.039-8.761-22.983-13.71-47.332-14.62-71.964-0.228-5.575 0.057-11.036 0.228-16.612l-0.057-2.844-0.341-6.428v-134.94c-0.171-4.096-0.455-8.135-1.308-12.174-0.91-4.039-2.332-7.794-3.925-11.605l-76.629-166.4h112.356c131.356 3.356 262.77 3.356 394.126 0z" />
<glyph unicode="&#xe923;" glyph-name="recovery" horiz-adv-x="842" d="M418.057 780.833v179.167l-298.612-238.89 298.612-238.89v179.167c164.894 0 298.612-133.718 298.612-298.612s-133.718-298.612-298.612-298.612c-144.468 0-264.928 102.603-292.58 238.89h-120.699c29.025-202.519 202.757-358.334 413.279-358.334 230.887 0 418.057 187.17 418.057 418.057s-187.17 418.057-418.057 418.057z" />
<glyph unicode="&#xe924;" glyph-name="mosaic" d="M887.467-64h-750.933c-75.435 0-136.533 61.099-136.533 136.533v750.933c0 75.435 61.099 136.533 136.533 136.533h750.933c75.435 0 136.533-61.099 136.533-136.533v-750.933c0-75.435-61.099-136.533-136.533-136.533zM477.867 823.467h-273.067c-37.683 0-68.267-30.583-68.267-68.267v-614.4c0-37.683 30.583-68.267 68.267-68.267h273.067v750.933zM887.467 755.2c0 37.683-30.583 68.267-68.267 68.267h-204.8v-341.333h273.067v273.067zM887.467 345.6h-273.067v-273.067h204.8c37.683 0 68.267 30.583 68.267 68.267v204.8z" />
<glyph unicode="&#xe925;" glyph-name="speed" horiz-adv-x="922" d="M491.622 880.538c61.901-8.448 218.522-129.485 222.362-258.97 3.635-122.368-39.27-214.528-39.27-214.528 121.037-59.136 74.496-211.917 74.496-211.917-20.070 32.358-43.776 58.266-78.029 73.933-28.877 13.21-52.992 18.227-70.656 18.227-4.301 0-8.243-0.307-11.776-0.87 0 0-54.886-57.754-97.126-57.754s-97.126 57.754-97.126 57.754c-3.533 0.563-7.424 0.87-11.776 0.87-17.664 0-41.779-5.018-70.656-18.227-34.253-15.616-57.958-41.523-78.029-73.933 0 0-46.541 152.781 74.496 211.917 0 0-42.957 92.16-39.27 214.528 3.891 129.485 160.461 250.522 222.362 258.97zM491.622 957.338c-3.482 0-6.912-0.256-10.394-0.717-95.795-13.056-283.648-162.56-288.717-332.749-2.304-76.39 11.366-142.746 24.422-187.802-82.176-78.797-75.366-200.858-56.32-263.322 8.806-28.826 33.638-49.869 63.539-53.76 3.328-0.41 6.656-0.666 9.933-0.666 26.317 0 51.149 13.568 65.28 36.352 14.592 23.552 27.955 36.864 44.646 44.493 9.062 4.147 16.538 6.758 22.477 8.397 29.696-24.986 76.186-55.757 125.184-55.757 48.947 0 95.488 30.771 125.184 55.757 5.888-1.69 13.414-4.301 22.426-8.448 16.691-7.629 30.054-20.941 44.646-44.493 14.131-22.784 38.912-36.352 65.28-36.352 3.277 0 6.605 0.205 9.933 0.666 29.901 3.891 54.784 24.934 63.539 53.76 19.046 62.464 25.856 184.576-56.32 263.322 13.107 45.056 26.726 111.411 24.422 187.802-5.069 170.189-192.922 319.693-288.768 332.749-3.43 0.563-6.912 0.768-10.394 0.768v0zM498.483 468.838c-75.878 0-137.626 61.747-137.626 137.626s61.747 137.626 137.626 137.626c75.878 0 137.626-61.747 137.626-137.626s-61.696-137.626-137.626-137.626zM498.483 667.29c-33.536 0-60.826-27.29-60.826-60.826s27.29-60.826 60.826-60.826 60.826 27.29 60.826 60.826-27.238 60.826-60.826 60.826zM498.483-61.389c-52.224 0-86.835 65.587-86.835 108.954 0 47.872 38.963 86.784 86.835 86.784 47.923 0 86.835-38.963 86.835-86.784 0.051-43.366-34.611-108.954-86.835-108.954zM498.483 83.149c-19.661 0-35.635-15.974-35.635-35.584 0-24.32 20.634-57.754 35.635-57.754s35.635 33.434 35.635 57.754c0.051 19.61-15.974 35.584-35.635 35.584z" />
<glyph unicode="&#xe926;" glyph-name="play" horiz-adv-x="764" d="M57.028-57.754c-8.079 0-16.090 1.901-23.49 5.771-16.837 8.758-27.428 26.206-27.428 45.148v910.011c0 19.009 10.591 36.39 27.428 45.148s37.136 7.4 52.683-3.462l649.717-455.006c13.578-9.505 21.657-25.12 21.657-41.685s-8.079-32.18-21.657-41.685l-649.717-455.006c-8.69-6.11-18.874-9.233-29.193-9.233zM110.662 800.592v-704.844l507.282 352.422-507.282 352.422z" />
<glyph unicode="&#xe927;" glyph-name="poly" d="M783.059 297.412v481.882c0 66.56-53.911 120.471-120.471 120.471h-481.882c-66.5 0-120.471-53.911-120.471-120.471v-481.882c0-66.56 53.971-120.471 120.471-120.471h481.882c66.56 0 120.471 53.911 120.471 120.471zM602.353 297.412h-361.412c-33.25 0-60.235 26.985-60.235 60.235v361.412c0 33.25 26.985 60.235 60.235 60.235h361.412c33.25 0 60.235-26.985 60.235-60.235v-361.412c0-33.25-26.985-60.235-60.235-60.235zM843.294 719.059v-481.882c0-66.56-53.911-120.471-120.471-120.471h-481.882c0-66.56 53.971-120.471 120.471-120.471h481.882c66.56 0 120.471 53.911 120.471 120.471v481.882c0 66.56-53.911 120.471-120.471 120.471z" />
<glyph unicode="&#xe928;" glyph-name="feedback" horiz-adv-x="916" d="M781.369-64h-646.737c-59.554 0-107.789 48.236-107.789 107.789v700.632c0 59.554 48.236 107.789 107.789 107.789h107.789v53.895c0 29.75 24.145 53.895 53.895 53.895h323.368c29.75 0 53.895-24.145 53.895-53.895v-53.895h107.789c59.554 0 107.789-48.236 107.789-107.789v-700.632c0-59.554-48.236-107.789-107.789-107.789zM565.79 825.263c0 14.875-12.072 26.947-26.947 26.947h-161.684c-14.875 0-26.947-12.072-26.947-26.947v-53.895c0-14.875 12.072-26.947 26.947-26.947h161.684c14.875 0 26.947 12.072 26.947 26.947v53.895zM781.369 690.526c0 29.75-24.145 53.895-53.895 53.895h-53.895v-53.895c0-29.75-24.145-53.895-53.895-53.895h-323.368c-29.75 0-53.895 24.145-53.895 53.895v53.895h-53.895c-29.75 0-53.895-24.145-53.895-53.895v-592.842c0-29.75 24.145-53.895 53.895-53.895h538.947c29.75 0 53.895 24.145 53.895 53.895v592.842zM565.79 205.474h-215.579c-29.75 0-53.895 24.145-53.895 53.895s24.145 53.895 53.895 53.895h215.579c29.75 0 53.895-24.145 53.895-53.895s-24.145-53.895-53.895-53.895zM565.79 421.053h-215.579c-29.75 0-53.895 24.145-53.895 53.895s24.145 53.895 53.895 53.895h215.579c29.75 0 53.895-24.145 53.895-53.895s-24.145-53.895-53.895-53.895z" />
<glyph unicode="&#xe929;" glyph-name="search-del" d="M512 960c-282.761 0-512-229.239-512-512s229.239-512 512-512 512 229.239 512 512-229.239 512-512 512zM737.212 287.573c17.886-17.886 17.886-46.899 0-64.717s-46.831-17.886-64.717 0l-161.929 161.86-161.86-161.86c-17.886-17.886-46.899-17.886-64.717 0-17.886 17.886-17.886 46.899 0 64.717l161.86 161.86-161.929 161.86c-17.886 17.886-17.886 46.899 0 64.717 17.886 17.886 46.899 17.886 64.717 0l161.86-161.86 161.929 161.86c17.886 17.886 46.831 17.886 64.717 0s17.886-46.831 0-64.717l-161.86-161.86 161.929-161.86z" />
<glyph unicode="&#xe92a;" glyph-name="small-lock" horiz-adv-x="751" d="M614.4 618.667v34.133c0 169.643-69.291 307.2-238.933 307.2s-238.933-137.557-238.933-307.2v-34.133c-75.435 0-136.533-61.099-136.533-136.533v-409.6c0-75.435 61.099-136.533 136.533-136.533h477.867c75.435 0 136.533 61.099 136.533 136.533v409.6c0 75.435-61.099 136.533-136.533 136.533zM273.067 652.8c0 94.276 8.124 170.667 102.4 170.667s102.4-76.39 102.4-170.667v-34.133h-204.8v34.133z" />
<glyph unicode="&#xe92b;" glyph-name="close" horiz-adv-x="927" d="M622.995 448.042l268.177-287.779c40.605-43.57 40.605-114.238 0-157.891-40.605-43.57-106.497-43.57-147.101 0l-268.177 287.779-283.413-304.169c-40.605-43.57-106.497-43.57-147.101 0s-40.605 114.238 0 157.891l283.413 304.169-283.413 304.169c-40.605 43.57-40.605 114.238 0 157.809s106.497 43.57 147.101 0l283.413-304.169 268.177 287.779c40.605 43.57 106.497 43.57 147.101 0s40.605-114.238 0-157.891l-268.177-287.697z" />
<glyph unicode="&#xe92c;" glyph-name="minimize" horiz-adv-x="1109" d="M114.052 559.367h881.733c62.482 0 113.2-50.718 113.2-113.2v-29.323c0-62.567-50.718-113.2-113.2-113.2h-881.733c-62.482 0-113.2 50.718-113.2 113.2v29.323c0 62.482 50.718 113.2 113.2 113.2z" />
<glyph unicode="&#xe92d;" glyph-name="maximizing" d="M837.818-64h-651.636c-102.865 0-186.182 83.316-186.182 186.182v651.636c0 102.865 83.316 186.182 186.182 186.182h651.636c102.865 0 186.182-83.316 186.182-186.182v-651.636c0-102.865-83.316-186.182-186.182-186.182zM837.818 680.727c0 51.386-41.705 93.091-93.091 93.091h-465.455c-51.386 0-93.091-41.705-93.091-93.091v-465.455c0-51.386 41.705-93.091 93.091-93.091h465.455c51.386 0 93.091 41.705 93.091 93.091v465.455z" />
<glyph unicode="&#xe92e;" glyph-name="share-community" horiz-adv-x="1311" d="M1161.741 86.848l28.775-141.137-227.344 44.325c0 0-39.857 0-99.314 0-100.923 0-202.62 34.793-277.388 80.667-29.073 5.004-34.554 4.647-54.81 3.336-69.109-4.29-114.625-13.286-114.625-13.286l-297.882-59.576 45.993 185.104c-108.727 81.798-165.146 189.632-165.146 321.296 0 246.766 240.034 446.823 536.188 446.823 217.394 0 403.392-108.31 487.455-263.268 167.589-52.368 287.039-183.495 287.039-338.096 0-106.94-58.325-199.76-148.941-266.188zM536.188 835.247c-230.323 0-417.035-150.014-417.035-335.118 0-98.778 61.423-210.364 158.235-266.247l-25.856-102.471 185.938 42.895c0 0 26.214 7.090 38.486 9.473-39.082 53.976-58.921 102.174-58.921 169.257 0 197.436 194.219 357.28 435.742 362.165-76.079 72.922-188.798 120.047-316.589 120.047zM863.859 596.286c-180.874 0-327.551-112.242-327.551-250.757 0-138.456 146.618-250.757 327.551-250.757 43.55 0 72.802 0 72.802 0l132.021-37.771 1.847 96.812c76.317 46.529 120.881 117.842 120.881 191.717-0.060 138.515-146.677 250.757-327.551 250.757zM1012.8 299.059c-32.886 0-59.576 26.69-59.576 59.576s26.69 59.576 59.576 59.576 59.576-26.69 59.576-59.576c0-32.886-26.69-59.576-59.576-59.576zM714.917 299.059c-32.886 0-59.576 26.69-59.576 59.576s26.69 59.576 59.576 59.576c32.886 0 59.576-26.69 59.576-59.576s-26.69-59.576-59.576-59.576z" />
<glyph unicode="&#xe92f;" glyph-name="share-email" horiz-adv-x="1263" d="M1134.57-55.069h-1006.326c-69.499 0-125.791 56.291-125.791 125.791v754.745c0 69.499 56.291 125.791 125.791 125.791h1006.326c69.499 0 125.791-56.291 125.791-125.791v-754.745c0-69.499-56.291-125.791-125.791-125.791zM1025.887 70.722l-334.1 372.529c-51.511 67.864-86.041 36.605-118.872 0l-334.1-372.529h787.073zM128.244 133.617c0-10.252 3.019-19.498 7.359-28.051l243.845 286.174-251.204 145.1v-403.222zM1134.57 762.571c0 34.718-28.177 62.895-62.895 62.895h-880.536c-34.718 0-62.895-28.177-62.895-62.895v-80.506l334.981-191.957 94.217 110.57c40.882 47.989 107.111 47.989 147.993 0l99.501-116.734 329.698 250.009v28.617zM1134.57 576.024l-247.997-188.057 240.638-282.4c4.34 8.554 7.359 17.799 7.359 28.051v442.406z" />
<glyph unicode="&#xe930;" glyph-name="share-link" horiz-adv-x="1234" d="M1054.696 286.968l-155.15-89.578-59.719 103.433 155.15 89.578c114.242 65.989 153.418 212.062 87.428 326.304-65.93 114.242-212.062 153.418-326.304 87.428l-155.15-89.578-59.719 103.433 155.15 89.578c171.393 98.954 390.502 40.251 489.456-131.143 98.954-171.334 40.251-390.502-131.143-489.456zM358.373 298.733c-16.482 28.546-6.689 65.094 21.857 81.576l465.449 268.735c28.546 16.482 65.094 6.689 81.576-21.857s6.689-65.094-21.857-81.576l-465.449-268.735c-28.546-16.542-65.094-6.748-81.576 21.857zM151.507 179.295c65.989-114.242 212.062-153.418 326.304-87.428l155.15 89.578 59.719-103.433-155.15-89.578c-171.393-98.954-390.502-40.251-489.456 131.143s-40.251 390.502 131.143 489.456l155.15 89.578 59.719-103.433-155.15-89.578c-114.242-65.989-153.418-212.062-87.428-326.304z" />
<glyph unicode="&#xe931;" glyph-name="share-friend" horiz-adv-x="1138" d="M1138.091 308.162c0 118.477-83.118 205.222-190.656 256.284 12.617 33.789 19.71 70.826 19.71 109.759-0.054 157.843-114.578 285.795-255.905 285.795-88.641 0-166.127-50.791-211.991-127.303-23.067 7.635-47.001 12.996-72.288 12.996-141.273 0-255.851-127.953-255.851-285.795 0-38.987 7.093-76.078 19.764-109.975-107.376-51.062-190.332-137.753-190.332-256.068 0-263.161 261.862-257.855 453.276-257.855 147.121 0 303.935-2.437 368.859 115.498 159.521 1.516 315.414 43.373 315.414 256.663zM711.239 845.693c78.515 0 142.139-76.782 142.139-171.488s-63.624-171.488-142.139-171.488c-6.552 0-21.443 0.325-33.464 1.191 3.249 18.086 5.036 36.767 5.036 55.935 0 85.121-34.005 160.712-86.854 213.074 25.612 43.86 67.415 72.775 115.282 72.775zM426.96 731.386c78.515 0 142.139-76.782 142.139-171.488s-63.624-171.488-142.139-171.488-142.139 76.782-142.139 171.488 63.624 171.488 142.139 171.488zM446.67 48.412c-140.407 0-332.417-3.195-332.417 154.702 0 69.635 58.534 120.913 135.046 151.724 46.026-49.762 108.513-80.681 177.661-80.681 69.202 0 131.689 30.973 177.769 80.789 76.62-30.81 135.263-82.143 135.263-151.832 0-157.68-152.915-154.702-293.322-154.702zM852.404 166.51c0.541 8.989 1.408 17.598 1.408 27.345 0 82.251-40.557 148.854-101.041 199.158 52.253 9.693 99.254 36.442 135.804 75.754 76.62-30.81 135.75-81.656 135.75-151.345-0.054-111.762-77.27-142.302-171.921-150.912z" />
<glyph unicode="&#xe932;" glyph-name="sort-select" horiz-adv-x="1223" d="M1017.989 649.665l-448.118-529.444c-23.219-27.462-63.293-29.937-89.576-5.54l-253.407 235.256c-40.899 38.188-44.199 118.453-12.494 153.93 28.759 32.177 109.26 50.328 152.751 6.6l137.783-156.052 339.683 407.691c47.145 48.913 125.053 41.134 155.344 0.354 21.451-28.759 47.735-73.429 18.033-112.796z" />
<glyph unicode="&#xe933;" glyph-name="dropdown-arrow" horiz-adv-x="1657" d="M1251.37 697.275c-41.76 41.865-109.634 41.865-151.377 0l-271.396-271.396-271.501 271.396c-41.865 41.865-109.634 41.865-151.377 0-41.865-41.865-41.865-109.634 0-151.377l347.184-347.184c41.865-41.865 109.634-41.865 151.377 0l347.184 347.184c41.76 41.76 41.76 109.634-0.105 151.377z" />
<glyph unicode="&#xe934;" glyph-name="friendlist" horiz-adv-x="1199" d="M1138.447 297.412h-240.941c-33.25 0-60.235 26.985-60.235 60.235s26.985 60.235 60.235 60.235h240.941c33.25 0 60.235-26.985 60.235-60.235s-26.985-60.235-60.235-60.235zM1138.447 538.353h-361.412c-33.25 0-60.235 26.985-60.235 60.235s26.985 60.235 60.235 60.235h361.412c33.25 0 60.235-26.985 60.235-60.235s-26.985-60.235-60.235-60.235zM553.803 532.209c-39.153-32.888-86.739-54.091-138.18-54.091-49.995 0-96.376 19.998-134.927 51.441-63.97 52.164-106.014 135.891-106.014 211.426 0 120.952 107.821 219.016 240.941 219.016s240.941-98.063 240.941-219.016c0-74.21-40.599-156.371-102.761-208.776zM415.624 839.529c-66.5 0-120.471-53.971-120.471-120.471s53.971-120.471 120.471-120.471 120.471 53.971 120.471 120.471-53.971 120.471-120.471 120.471zM0-64v120.471c29.395 204.077 203.354 361.412 415.624 361.412s386.108-157.335 415.624-361.412h1.205v-120.471h-832.452zM120.471 56.471h590.306c-27.949 137.457-149.384 240.941-295.153 240.941s-267.204-103.484-295.153-240.941zM1017.976 176.941h120.471c33.25 0 60.235-26.985 60.235-60.235s-26.985-60.235-60.235-60.235h-120.471c-33.25 0-60.235 26.985-60.235 60.235s26.985 60.235 60.235 60.235z" />
<glyph unicode="&#xe935;" glyph-name="checkgridsmall" horiz-adv-x="1021" d="M510.731 955.803c-279.912 0-506.778-226.916-506.778-506.778s226.916-506.778 506.778-506.778 506.778 226.916 506.778 506.778-226.867 506.778-506.778 506.778zM775.613 516.075l-310.557-310.557c-19.080-19.080-49.97-19.080-69.002 0l-172.554 172.505c-19.080 19.080-19.080 49.97 0 69.002 19.080 19.080 49.97 19.080 69.002 0l138.004-138.004 276.056 276.056c19.080 19.080 49.97 19.080 69.002 0 19.129-19.080 19.129-49.97 0.049-69.002z" />
<glyph unicode="&#xe936;" glyph-name="mboxchate" horiz-adv-x="1002" d="M877.107 84.893h-556.818c-4.501-5.501-8.376 2.125-15.002-1.75l-217.902-137.767c-29.879-17.252-79.51-11.126-85.385 22.878-4.376 25.378 0 40.88 0 60.257v243.905c0 0 0 0 0 0v562.569c0 69.008 56.007 125.015 125.015 125.015h750.092c69.008 0 125.015-56.007 125.015-125.015v-625.076c0-69.008-56.007-125.015-125.015-125.015zM877.107 834.985h-750.092v-722.338l108.388 83.135c3.375 2 10.501 5.376 14.127 6.626l6.251 2.5h621.326v630.077zM314.538 459.939h250.031c34.504 0 62.508-28.003 62.508-62.508s-28.003-62.508-62.508-62.508h-250.031c-34.504 0-62.508 28.003-62.508 62.508s28.003 62.508 62.508 62.508zM252.031 647.462c0 34.504 28.003 62.508 62.508 62.508h375.046c34.504 0 62.508-28.003 62.508-62.508s-28.003-62.508-62.508-62.508h-375.046c-34.504 0-62.508 28.003-62.508 62.508z" />
<glyph unicode="&#xe937;" glyph-name="checksmall" horiz-adv-x="1246" d="M1041.168 657.273l-457.259-540.219c-23.647-27.964-64.576-30.504-91.348-5.679l-258.636 240.069c-26.782 24.908-67.535 112.537-17.885 162.105 56.266 45.767 138.466 29.060 165.244 4.234l161.774-161.774 346.679 415.99c23.647 27.964 107.194 29.327 133.975 4.49s41.099-91.265 17.452-119.229z" />
<glyph unicode="&#xe938;" glyph-name="downtitle" horiz-adv-x="816" d="M706.91 304.021l-225.107-208.048c-24.105-24.105-50.926-47.973-73.676-47.973-23.542 0-51.014 25.307-73.676 47.973l-225.107 208.048c-29.312 33.154-26.182 83.768 6.883 113.077 33.154 29.312 83.768 26.182 113.077-6.883l98.736-91.289v449.012c0 44.205 35.876 80.076 80.076 80.076s80.076-35.876 80.076-80.076v-449.012l98.736 91.289c29.312 33.076 79.925 36.195 113.077 6.883 33.076-29.312 36.195-79.925 6.883-113.077z" />
<glyph unicode="&#xe939;" glyph-name="up" horiz-adv-x="816" d="M109.35 591.979l225.107 208.048c24.105 24.105 50.926 47.973 73.676 47.973 23.542 0 51.014-25.307 73.676-47.973l225.107-208.048c29.312-33.154 26.182-83.768-6.883-113.077-33.154-29.312-83.768-26.182-113.077 6.883l-98.736 91.289v-449.012c0-44.205-35.876-80.076-80.076-80.076s-80.076 35.876-80.076 80.076v449.012l-98.736-91.289c-29.312-33.076-79.925-36.195-113.077-6.883-33.076 29.312-36.195 79.925-6.883 113.077z" />
<glyph unicode="&#xe93a;" glyph-name="rename-cancel" d="M643.527 448.047l197.222-197.313c36.35-36.35 36.35-95.222 0-131.48-36.259-36.35-95.222-36.35-131.48 0l-197.313 197.222-197.222-197.222c-36.259-36.35-95.222-36.35-131.48 0-36.35 36.259-36.35 95.222 0 131.48l197.222 197.222-197.222 197.313c-36.35 36.259-36.35 95.222 0 131.48 36.35 36.35 95.222 36.35 131.48 0l197.222-197.222 197.313 197.222c36.35 36.35 95.222 36.35 131.48 0 36.35-36.259 36.35-95.222 0-131.48l-197.222-197.222z" />
<glyph unicode="&#xe93b;" glyph-name="circle" d="M511.975 952c278.364 0 503.975-225.661 503.975-503.975s-225.661-503.975-503.975-503.975c-278.315-0.048-503.975 225.612-503.975 503.975s225.661 503.975 503.975 503.975z" />
<glyph unicode="&#xe93c;" glyph-name="mac" horiz-adv-x="1434" d="M1203.253 64h-972.795c-28.259 0-51.195 22.935-51.195 51.195s22.935 51.195 51.195 51.195h50.688c0 51.195 0.507 32.465 0.507 51.195v511.995c0 56.571 45.819 102.405 102.405 102.405h665.595c56.519 0 102.405-45.819 102.405-102.405v-511.995c0-18.744-0.408-18.744-0.408-51.195h51.613c28.259 0 51.195-22.935 51.195-51.195s-22.935-51.195-51.195-51.195zM563.248 115.198h256.003c14.136 0 25.605 11.468 25.605 25.605s-11.468 25.605-25.605 25.605h-256.003c-14.136 0-25.605-11.468-25.605-25.605s11.468-25.605 25.605-25.605zM1049.653 729.595h-665.595v-511.995h665.595v511.995z" />
<glyph unicode="&#xe93d;" glyph-name="musicpause" horiz-adv-x="739" d="M732.35 447.964c0-20.371-3.552-32.333-16.312-56.184-11.599-16.312-10.802-24.648-32.188-42.192-146.514-119.908-392.056-255.547-543.789-373.57-21.314-19.864-42.627-32.551-68.798-32.551-40.018 0-64.521 29.578-64.521 69.596 0 3.552 1.522 6.525 2.030 9.932-0.87 6.307-2.030 11.962-2.030 20.516 0 236.843 0 583.517 0 816.518 0 6.38 1.015 10.149 1.595 15.224-0.362 2.61-1.667 4.93-1.667 7.685 0 40.018 32.478 72.496 72.496 72.496 9.859 0 19.284-2.030 27.911-5.655 7.032-2.102 15.297-6.017 25.808-13.702 152.748-111.063 407.715-296.507 555.534-404.018 18.631-13.557 19.574-19.791 24.359-36.465 11.382-12.759 19.574-29.143 19.574-47.63z" />
<glyph unicode="&#xe93e;" glyph-name="musicloop" horiz-adv-x="1040" d="M122.356 453.445c0 118.257 95.866 214.124 214.124 214.124h126.578c10.033-2.569 20.25-2.569 30.283 0h45.884l0.184 58.058c0 0.122 0 0.245 0 0.306l0.061 63.992h-38.909l-152.15 152.15c-23.921 23.921-62.646 23.921-86.506 0-23.921-23.921-23.921-62.646 0-86.506l66.072-66.072c-181.883-4.588-327.976-153.129-327.976-336.052 0-185.859 150.621-336.48 336.48-336.48h30.589v122.356h-30.589c-118.257 0-214.124 95.866-214.124 214.124zM1040.029 453.445c0 185.859-150.621 336.48-336.48 336.48h-30.589v-122.356h30.589c118.257 0 214.124-95.866 214.124-214.124s-95.866-214.124-214.124-214.124h-214.124v-62.096c-0.551-4.772-0.551-9.299 0-14.010v-46.251h26.551l163.040-163.040c23.921-23.921 62.646-23.921 86.506 0 23.921 23.921 23.921 62.646 0 86.506l-76.534 76.534h14.56c185.859 0 336.48 150.621 336.48 336.48zM611.782 361.678h-61.178l-0.612 244.713h-121.745v-61.178h61.178v-183.534h-61.178v-61.178h183.534v61.178z" />
<glyph unicode="&#xe93f;" glyph-name="musicprev" horiz-adv-x="922" d="M922-57.638l-605.857 432.38v-179.94c0-83.608-67.856-151.464-151.464-151.464s-151.464 67.856-151.464 151.464v504.881c0 83.608 67.856 151.464 151.464 151.464s151.464-67.856 151.464-151.464v-179.94l605.857 432.279v-1009.661z" />
<glyph unicode="&#xe940;" glyph-name="musicrandom" horiz-adv-x="947" d="M317.409 657.959h380.746l-76.354-77.439c-23.081-23.443-23.081-61.469 0-84.911s60.565-23.443 83.646 0l167.292 169.763c19.164 19.465 21.514 48.573 8.798 71.473-2.531 10.847-6.87 21.273-15.186 29.71l-172.716 175.247c-23.864 24.166-62.493 24.166-86.358 0-23.864-24.226-23.864-63.458 0-87.623l74.606-75.691h-364.475c-151.503 0-277.815-102.267-317.409-241.055h127.578c33.868 71.111 105.823 120.527 189.831 120.527zM826.576 416.904c-14.765-102.087-101.725-180.791-207.91-180.791h-301.318c-10.305 0-20.188 1.627-30.132 3.013v-3.013h-54.358l80.814 80.814c23.563 23.563 23.563 61.71 0 85.213-23.563 23.563-61.71 23.563-85.213 0l-170.426-170.426c-19.525-19.586-21.876-48.753-8.979-71.714 2.591-10.847 6.991-21.333 15.488-29.831l175.97-175.97c24.286-24.286 63.699-24.286 87.985 0s24.286 63.699 0 87.985l-81.296 81.235c22.599-5.002 46.041-7.834 70.267-7.834h301.318c172.716 0 312.949 132.64 328.437 301.318h-120.648z" />
<glyph unicode="&#xe941;" glyph-name="musicloop2" horiz-adv-x="1040" d="M703.549 116.965h-19.455l82.040-82.040c23.921-23.921 23.921-62.646 0-86.506-23.921-23.921-62.646-23.921-86.506 0l-168.546 168.546h-21.657v43.865c-0.184 2.631-0.184 5.078 0 7.708v70.783h214.124c118.257 0 214.124 95.866 214.124 214.124s-95.866 214.124-214.124 214.124h-30.589v122.356h30.589c185.859 0 336.48-150.621 336.48-336.48s-150.621-336.48-336.48-336.48zM462.996 667.568h-126.516c-118.257 0-214.124-95.866-214.124-214.124s95.866-214.124 214.124-214.124h30.589v-122.356h-30.589c-185.859 0-336.48 150.621-336.48 336.48 0 183.045 146.338 331.219 328.343 335.685l-66.439 66.439c-23.859 23.921-23.859 62.646 0 86.506 23.921 23.921 62.646 23.921 86.506 0l152.15-152.15h50.044v-122.356h-57.263c-10.033-2.631-20.25-2.631-30.344 0z" />
<glyph unicode="&#xe942;" glyph-name="musicnext" horiz-adv-x="922" d="M0 953.638l605.857-432.38v179.94c0 83.608 67.856 151.464 151.464 151.464s151.464-67.856 151.464-151.464v-504.881c0-83.608-67.856-151.464-151.464-151.464s-151.464 67.856-151.464 151.464v179.94l-605.857-432.279v1009.661z" />
<glyph unicode="&#xe943;" glyph-name="musicplay" horiz-adv-x="868" d="M122.419 955.169c-64.521 0-116.886-52.365-116.886-116.886v-779.241c0-64.521 52.365-116.886 116.886-116.886s116.886 52.365 116.886 116.886v779.241c0 64.521-52.287 116.886-116.886 116.886zM745.811 955.169c-64.521 0-116.886-52.365-116.886-116.886v-779.241c0-64.521 52.365-116.886 116.886-116.886s116.886 52.365 116.886 116.886v779.241c0 64.521-52.287 116.886-116.886 116.886z" />
<glyph unicode="&#xe944;" glyph-name="musicvolume" horiz-adv-x="1209" d="M0 659.495v-405.709h201.404l402.868-258.991v906.409l-422.991-241.709h-181.282zM483.418 719.923v-543.845l-241.709 181.282h-120.854v181.282h120.854l241.709 181.282zM966.836 448c0 139.829-105.929 253.674-241.709 268.901v-120.854c68.947-14.019 120.854-74.93 120.854-148.047s-51.907-134.028-120.854-148.047v-120.854c135.78 15.228 241.709 129.073 241.709 268.901zM727 960v-122.486c201.646-16.557 360.69-183.578 360.69-389.514s-159.045-372.957-360.69-389.574v-122.486c268.66 16.678 481.545 239.231 481.545 512.060s-212.885 495.322-481.545 512z" />
<glyph unicode="&#xe945;" glyph-name="arrow-up" d="M976.481 201.005c-11.068 0-22.168 3.783-31.235 11.569l-432.974 371.129-432.974-371.129c-20.166-17.259-50.463-14.883-67.723 5.19-17.259 20.136-14.946 50.463 5.19 67.723l464.24 397.925c18.009 15.445 44.523 15.445 62.533 0l464.24-397.925c20.136-17.259 22.449-47.587 5.19-67.723-9.504-11.068-22.948-16.759-36.486-16.759z" />
<glyph unicode="&#xe946;" glyph-name="arrow-down" d="M510.889 335.116l375.283 372.986 73.181-72.715-448.464-445.754-448.436 445.755 73.166 72.715 375.27-372.987z" />
<glyph unicode="&#xe947;" glyph-name="arrow-right" d="M352.492 873.354l407.631-403.692c11.815-11.815 11.815-31.508 0-43.323l-407.631-403.692c-11.815-11.815-31.508-11.815-43.323 0l-43.323 43.323c-11.815 11.815-11.815 31.508 0 43.323l320.985 317.046c11.815 11.815 11.815 31.508 0 43.323l-319.015 317.046c-11.815 11.815-11.815 31.508 0 43.323l43.323 43.323c11.815 9.846 29.538 9.846 41.354 0z" />
<glyph unicode="&#xe948;" glyph-name="arrow-left" d="M673.477 20.677l-409.6 403.692c-11.815 11.815-11.815 31.508 0 43.323l409.6 403.692c11.815 11.815 31.508 11.815 43.323 0l43.323-43.323c11.815-11.815 11.815-31.508 0-43.323l-324.923-317.046c-11.815-11.815-11.815-31.508 0-43.323l320.985-317.046c11.815-11.815 11.815-31.508 0-43.323l-43.323-43.323c-9.846-9.846-27.569-9.846-39.385 0z" />
<glyph unicode="&#xe949;" glyph-name="appeal" horiz-adv-x="1135" d="M874.326 183.96v118.721c68.807 13.735 120.597 73.564 120.597 145.319s-51.79 131.584-120.597 145.319v118.721c135.47-14.941 241.193-126.694 241.193-264.040s-105.723-249.099-241.193-264.040zM284.742 213.506v-133.996c0-36.983-30.015-66.998-66.998-66.998s-66.998 30.015-66.998 66.998v133.996h-133.996v468.987h334.991l401.989 277.506v-1024l-401.989 277.506h-66.998zM619.733 213.506v468.987l-200.994-133.996h-267.993v-200.994h267.993l200.994-133.996z" />
<glyph unicode="&#xe94a;" glyph-name="radio-checked" horiz-adv-x="1016" d="M508.121 939.365c-273.54 0-495.244-221.704-495.244-495.244s221.704-495.244 495.244-495.244c273.54 0 495.244 221.704 495.244 495.244s-221.704 495.244-495.244 495.244zM508.121 279.039c-91.207 0-165.081 73.874-165.081 165.081s73.874 165.081 165.081 165.081 165.081-73.874 165.081-165.081-73.874-165.081-165.081-165.081z" />
<glyph unicode="&#xe94b;" glyph-name="radio-non" horiz-adv-x="1016" d="M508.121 943.244c-273.54 0-495.244-221.704-495.244-495.244s221.704-495.244 495.244-495.244c273.54 0 495.244 221.704 495.244 495.244s-221.704 495.244-495.244 495.244zM508.121 35.296c-227.895 0-412.704 184.809-412.704 412.704s184.809 412.704 412.704 412.704 412.704-184.809 412.704-412.704-184.726-412.704-412.704-412.704z" />
<glyph unicode="&#xe94c;" glyph-name="director" d="M551.668 490.359c-5.685 0-5.685 0-11.304 0-107.498 0-192.33-84.843-192.33-192.33s84.843-192.33 192.33-192.33 192.33 84.843 192.33 192.33c0 39.584-11.304 79.211-33.957 107.498h186.71v-277.225c0-62.236-50.932-107.498-107.498-107.498h-469.572c-62.236 0-107.498 50.932-107.498 107.498v356.446l752.476 198.016-5.685 16.981-11.304 39.584-5.685 28.28-16.981 50.932c-22.652 84.843-113.162 141.459-203.689 113.162l-520.504-135.778c-90.516-22.652-141.459-113.162-118.804-198.016l16.981-50.932 5.685-28.28 11.304-39.584 5.685-11.304v-367.75c0-90.516 73.542-164.058 164.058-164.058h537.478c90.516 0 164.058 73.542 164.058 164.058v390.344h-424.31zM653.488 275.377c-11.304-62.236-73.542-101.821-130.101-84.843-62.236 11.304-101.821 73.542-84.843 130.101 11.304 62.236 73.542 101.821 130.101 84.843 56.555-11.304 96.194-67.914 84.843-130.101zM744.005 846.804c39.584-5.685 73.542-33.957 84.843-73.542l5.685-28.28-130.101-33.957 39.584 135.778zM562.971 807.171l84.843 22.652-39.584-141.459-84.843-22.652 39.584 141.459zM376.255 756.288l84.843 22.652-39.584-141.459-84.843-22.652 39.584 141.459zM161.311 597.857c-11.304 50.932 16.981 107.498 67.914 118.804l45.268 11.304-39.584-141.459-73.542-16.981v28.28zM562.971 377.189c-28.28 0-50.932-22.652-50.932-45.268s22.652-45.268 50.932-45.268c28.28 0 50.932 22.652 50.932 45.268s-22.652 45.268-50.932 45.268z" />
<glyph unicode="&#xe94d;" glyph-name="dropdown-select" horiz-adv-x="1277" d="M397.629 648h479.996l-239.946-400-240.029 400z" />
<glyph unicode="&#xe94e;" glyph-name="tips-detail" horiz-adv-x="1015" d="M760.728 523.957l-354.541 354.541c-41.972 41.972-110.015 41.972-151.916 0-41.972-41.972-41.972-109.944 0-151.916l278.546-278.619-278.546-278.546c-41.972-41.972-41.972-110.015 0-151.916 41.972-41.972 110.015-41.972 151.916 0l354.541 354.541c41.972 41.901 41.972 109.944 0 151.916z" />
<glyph unicode="&#xe94f;" glyph-name="tips-success" horiz-adv-x="1276" d="M1238.187 922.539c-50.005 50.005-130.987 50.005-180.992 0l-597.248-672.427-241.408 241.408c-50.005 50.005-131.072 50.005-180.992 0-50.005-50.005-50.005-131.072 0-180.992l337.067-337.067c50.005-50.005 131.072-50.005 180.992 0 0.768 0.768 0.939 1.792 1.707 2.56s1.792 0.939 2.56 1.707l678.4 763.733c49.92 50.005 49.92 131.072-0.085 181.077z" />
<glyph unicode="&#xe950;" glyph-name="tips-close" d="M664.266 447.963l228.382 228.382c42.060 42.060 42.060 110.243 0 152.232-42.060 42.060-110.172 42.060-152.232 0l-228.382-228.309-228.382 228.382c-42.060 42.060-110.243 42.060-152.232 0-42.060-42.060-42.060-110.172 0-152.232l228.382-228.382-228.452-228.452c-42.060-42.060-42.060-110.172 0-152.232s110.243-42.060 152.232 0l228.382 228.382 228.382-228.382c42.060-42.060 110.243-42.060 152.232 0s42.060 110.243 0 152.232l-228.309 228.382z" />
<glyph unicode="&#xe951;" glyph-name="tips-caution" d="M512 960c-282.758 0-512-229.242-512-512s229.242-512 512-512 512 229.242 512 512-229.242 512-512 512zM512 69.565c-208.985 0-378.435 169.45-378.435 378.435s169.45 378.435 378.435 378.435 378.435-169.45 378.435-378.435-169.45-378.435-378.435-378.435zM512 696.966c36.864 0 66.783-29.919 66.783-66.783v-178.087c0-36.864-29.919-66.783-66.783-66.783s-66.783 29.919-66.783 66.783v178.087c0 36.864 29.919 66.783 66.783 66.783zM512 341.148c36.864 0 66.783-29.919 66.783-66.783s-29.919-66.783-66.783-66.783c-36.864 0-66.783 29.919-66.783 66.783s29.919 66.783 66.783 66.783z" />
<glyph unicode="&#xe952;" glyph-name="imageEnlarge" horiz-adv-x="979" d="M593.023 559.029h-98.061v98.061c0 27.065-21.966 49.030-49.030 49.030s-49.030-21.966-49.030-49.030v-98.061h-98.061c-27.065 0-49.030-21.966-49.030-49.030s21.966-49.030 49.030-49.030h98.061v-98.061c0-27.065 21.966-49.030 49.030-49.030s49.030 21.966 49.030 49.030v98.061h98.061c27.065 0 49.030 21.966 49.030 49.030s-21.966 49.030-49.030 49.030zM954.867 27.246l-186.659 182.442c82.469 88.402 128.901 209.703 117.526 339.487-21.23 242.651-235.199 421.809-477.997 400.137-242.75-21.622-422.348-235.885-401.118-478.586 21.23-242.651 235.248-421.809 477.997-400.137 77.713 6.913 148.807 33.782 209.066 74.82l192.64-188.277c19.367-18.926 50.403-18.583 69.329 0.784s18.583 50.403-0.784 69.329zM445.932 166.786c-189.552 0-343.213 153.661-343.213 343.213s153.661 343.213 343.213 343.213c189.552 0 343.213-153.661 343.213-343.213s-153.661-343.213-343.213-343.213z" />
<glyph unicode="&#xe953;" glyph-name="hollowCircle" d="M512 960c-282.752 0-512-229.248-512-512s229.248-512 512-512 512 229.248 512 512-229.248 512-512 512zM512 21.333c-235.648 0-426.667 191.019-426.667 426.667s191.019 426.667 426.667 426.667c235.648 0 426.667-191.019 426.667-426.667s-191.019-426.667-426.667-426.667z" />
<glyph unicode="&#xe954;" glyph-name="picpre-enlarge" horiz-adv-x="979" d="M593.023 559.029h-98.061v98.061c0 27.065-21.966 49.030-49.030 49.030s-49.030-21.966-49.030-49.030v-98.061h-98.061c-27.065 0-49.030-21.966-49.030-49.030s21.966-49.030 49.030-49.030h98.061v-98.061c0-27.065 21.966-49.030 49.030-49.030s49.030 21.966 49.030 49.030v98.061h98.061c27.065 0 49.030 21.966 49.030 49.030s-21.966 49.030-49.030 49.030zM954.867 27.246l-186.659 182.442c82.469 88.402 128.901 209.703 117.526 339.487-21.23 242.651-235.199 421.809-477.997 400.137-242.75-21.622-422.348-235.885-401.118-478.586 21.23-242.651 235.248-421.809 477.997-400.137 77.713 6.913 148.807 33.782 209.066 74.82l192.64-188.277c19.367-18.926 50.403-18.583 69.329 0.784s18.583 50.403-0.784 69.329zM445.932 166.786c-189.552 0-343.213 153.661-343.213 343.213s153.661 343.213 343.213 343.213c189.552 0 343.213-153.661 343.213-343.213s-153.661-343.213-343.213-343.213z" />
<glyph unicode="&#xe955;" glyph-name="picpre-close" d="M639.985 449.024l357.515-351.492c35.354-35.354 35.354-92.631 0-127.985s-92.631-35.354-127.985 0l-357.515 351.492-357.515-351.492c-35.354-35.354-92.631-35.354-127.985 0s-35.354 92.631 0 127.985l357.515 351.492-357.515 357.515c-35.354 35.354-35.354 92.631 0 127.985s92.631 35.354 127.985 0l357.515-357.575 357.515 357.515c35.354 35.354 92.631 35.354 127.985 0s35.354-92.631 0-127.985l-357.515-357.454z" />
<glyph unicode="&#xe956;" glyph-name="picpre-beautify" horiz-adv-x="1167" d="M452.375 675.345l-431.126-542.924c-18.054-18.101-18.054-47.404 0-65.458l117.399-117.399c18.101-18.101 47.404-18.101 65.458 0l542.924 431.172c54.255 54.255 32.266 164.155-49.117 245.491s-191.282 103.326-245.538 49.117zM191.329 25.855l-92.586 92.586 347.29 382.009c31.248-59.162 87.633-97.91 134.064-121.195l-388.768-353.4zM639.259 433.094c-65.227 30.646-105.502 90.642-128.324 138.833l50.691 55.737 138.879-138.879-61.246-55.69zM145.036 766.542h46.293v-46.293c0-25.554 20.739-46.293 46.293-46.293s46.293 20.739 46.293 46.293v46.293h46.293c25.554 0 46.293 20.739 46.293 46.293s-20.739 46.293-46.293 46.293h-46.293v46.293c0 25.554-20.739 46.293-46.293 46.293s-46.293-20.739-46.293-46.293v-46.293h-46.293c-25.554 0-46.293-20.739-46.293-46.293s20.693-46.293 46.293-46.293zM1117.188 396.198h-46.293v46.293c0 25.554-20.739 46.293-46.293 46.293s-46.293-20.739-46.293-46.293v-46.293h-46.293c-25.554 0-46.293-20.739-46.293-46.293s20.739-46.293 46.293-46.293h46.293v-46.293c0-25.554 20.739-46.293 46.293-46.293s46.293 20.739 46.293 46.293v46.293h46.293c25.554 0 46.293 20.739 46.293 46.293s-20.739 46.293-46.293 46.293z" />
<glyph unicode="&#xe957;" glyph-name="picpre-delete" horiz-adv-x="771" d="M56.080 751.407h657.383c27.913 0 50.568 22.654 50.568 50.568s-22.654 50.568-50.568 50.568h-252.84v50.568c0 27.913-22.654 50.568-50.568 50.568h-50.568c-27.913 0-50.568-22.654-50.568-50.568v-50.568h-252.84c-27.913 0-50.568-22.654-50.568-50.568s22.654-50.568 50.568-50.568zM258.351 448c-27.913 0-50.568-22.654-50.568-50.568v-202.272c0-27.913 22.654-50.568 50.568-50.568s50.568 22.654 50.568 50.568v202.272c0 27.913-22.604 50.568-50.568 50.568zM662.895 650.272h-556.247c-55.878 0-101.136-45.309-101.136-101.136v-505.679c0-55.878 45.258-101.136 101.136-101.136h556.247c55.878 0 101.136 45.258 101.136 101.136v505.679c0 55.878-45.258 101.136-101.136 101.136zM662.895 94.025c0-27.913-22.654-50.568-50.568-50.568h-455.111c-27.913 0-50.568 22.654-50.568 50.568v404.543c0 27.913 22.654 50.568 50.568 50.568h455.111c27.913 0 50.568-22.654 50.568-50.568v-404.543zM511.191 448c-27.913 0-50.568-22.654-50.568-50.568v-202.272c0-27.913 22.654-50.568 50.568-50.568s50.568 22.654 50.568 50.568v202.272c0 27.913-22.604 50.568-50.568 50.568z" />
<glyph unicode="&#xe958;" glyph-name="picpre-before" horiz-adv-x="671" d="M212.86 444.241l426.802 380.669c33.682 30.013 33.682 78.732 0 108.745s-88.296 30.013-121.918 0l-487.791-435.042c-33.682-30.013-33.682-78.732 0-108.745l487.731-435.102c33.682-30.013 88.235-30.013 121.918 0s33.682 78.732 0 108.745l-426.742 380.73z" />
<glyph unicode="&#xe959;" glyph-name="picpre-pulldown2" horiz-adv-x="1463" d="M308.608 744h845.718l-422.854-592-422.855 592z" />
<glyph unicode="&#xe95a;" glyph-name="picpre-next" horiz-adv-x="671" d="M639.662 498.614l-487.791 435.102c-33.682 30.013-88.296 30.013-121.918 0-33.682-30.013-33.682-78.732 0-108.745l426.802-380.669-426.802-380.669c-33.682-30.013-33.682-78.732 0-108.745s88.235-30.013 121.918 0l487.731 435.102c33.742 29.893 33.742 78.612 0.060 108.625z" />
<glyph unicode="&#xe95b;" glyph-name="picpre-download" horiz-adv-x="1022" d="M915.734 700.84h-101.136c-27.913 0-50.568-22.654-50.568-50.568s22.654-50.568 50.568-50.568h50.568c27.913 0 50.568-22.654 50.568-50.568v-455.111c0-27.913-22.654-50.568-50.568-50.568h-707.951c-27.913 0-50.568 22.654-50.568 50.568v455.111c0 27.913 22.654 50.568 50.568 50.568h50.568c27.913 0 50.568 22.654 50.568 50.568s-22.654 50.568-50.568 50.568h-101.136c-55.827 0-101.136-45.258-101.136-101.136v-556.247c0-55.878 45.309-101.136 101.136-101.136h809.086c55.827 0 101.136 45.258 101.136 101.136v556.247c0 55.878-45.258 101.136-101.136 101.136zM265.026 421.401l214.56-214.56c19.772-19.772 51.782-19.772 71.503 0 2.63 2.63 3.995 5.916 5.916 8.9l197.215 197.215c18.963 18.963 18.963 49.708 0 68.671s-49.708 18.963-68.671 0l-123.79-123.79v545.274c0 27.913-22.654 50.568-50.568 50.568s-50.568-22.654-50.568-50.568v-534.3l-124.094 124.094c-19.772 19.772-51.782 19.772-71.503 0s-19.772-51.731 0-71.503z" />
<glyph unicode="&#xe95c;" glyph-name="picpre-detail" d="M512 960c-282.778 0-512-229.222-512-512s229.222-512 512-512c282.778 0 512 229.222 512 512s-229.222 512-512 512zM512 38.4c-226.202 0-409.6 183.398-409.6 409.6s183.398 409.6 409.6 409.6c226.202 0 409.6-183.398 409.6-409.6s-183.398-409.6-409.6-409.6zM512 704c-28.262 0-51.2-22.938-51.2-51.2s22.938-51.2 51.2-51.2 51.2 22.938 51.2 51.2c0 28.262-22.938 51.2-51.2 51.2zM512 550.4c-28.262 0-51.2-22.938-51.2-51.2v-256c0-28.262 22.938-51.2 51.2-51.2s51.2 22.938 51.2 51.2v256c0 28.262-22.938 51.2-51.2 51.2z" />
<glyph unicode="&#xe95d;" glyph-name="picpre-pullup" horiz-adv-x="1463" d="M1154.319 152h-845.718l422.856 592 422.853-592z" />
<glyph unicode="&#xe95e;" glyph-name="icon-picpre-rotate" horiz-adv-x="859" d="M857.575 321.133c-0.666-8.449-2.1-16.642-3.175-24.938l-102.825 1.946c1.587 10.139 3.124 20.278 3.892 30.673 15.977 211.488-142.511 395.938-354.050 411.915-11.061 0.871-21.814 0.256-32.722 0.154l37.586-43.936c20.227-19.817 20.585-52.232 0.819-72.459s-52.181-20.585-72.408-0.819l-121.055 141.64c-20.227 19.766-20.585 52.181-0.819 72.408 8.398 8.603 19.152 12.802 30.213 14.185 3.533 3.431 7.067 6.964 11.727 9.32l182.402 93.198c25.143 12.853 55.97 2.816 68.874-22.327 12.853-25.194 2.868-56.021-22.327-68.874l-46.65-23.863c253.683-33.848 440.028-259.777 420.517-518.222zM563.285 396.869v-358.454c0-56.584-45.831-102.415-102.415-102.415h-358.454c-56.584 0-102.415 45.831-102.415 102.415v358.454c0 56.584 45.831 102.415 102.415 102.415h358.454c56.584 0 102.415-45.831 102.415-102.415zM409.661 396.869h-256.038c-28.267 0-51.208-22.941-51.208-51.208v-256.038c0-28.267 22.941-51.208 51.208-51.208h256.038c28.267 0 51.208 22.941 51.208 51.208v256.038c0 28.267-22.941 51.208-51.208 51.208z" />
<glyph unicode="&#xe95f;" glyph-name="picpre-phone" horiz-adv-x="809" d="M692.746 949.427h-576.813c-58.205 0-105.36-47.156-105.36-105.36v-792.080c0-58.205 47.156-105.36 105.36-105.36h576.76c58.205 0 105.36 47.156 105.36 105.36v792.080c0.053 58.205-47.156 105.36-105.308 105.36zM692.693 53.678h-579.562v263.48h579.615v-263.48zM692.693 422.519h-579.562v421.548h579.615v-421.548zM402.939 106.385c43.667 0 79.034 35.367 79.034 79.034s-35.367 79.034-79.034 79.034-79.034-35.367-79.034-79.034c-0.053-43.667 35.367-79.034 79.034-79.034z" />
<glyph unicode="&#xe960;" glyph-name="picpre-cloudprint" horiz-adv-x="1119" d="M958.6 607.071c-4.635 191.702-159.392 345.77-350.038 345.77-178.163 0-324.934-134.563-347.193-308.641-143.512-22.856-253.613-147.505-253.613-299.095 0-113.176 61.177-211.895 151.865-264.169l77.608 1.101v57.644c-68.016 38.506-137.684 111.34-137.684 227.683 0 111.707 128.459 203.542 236.082 220.386 16.706 128.229 126.807 273.302 260.406 273.302 142.962 0 283.72-128.138 272.384-295.607 67.236-38.735 149.020-115.287 149.020-198.081 0-122.401-74.441-167.194-137.684-203.91v-72.1l67.052 0.964c87.934 53.008 162.421 141.768 162.421 252.833 0 112.35-60.994 209.325-150.626 261.92zM787.964 493.895h-458.946c-25.334 0-45.895-20.561-45.895-45.895v-458.946c0-25.334 20.561-45.895 45.895-45.895h458.946c25.334 0 45.895 20.561 45.895 45.895v458.946c0 25.334-20.561 45.895-45.895 45.895zM742.070 34.949h-367.157l91.789 91.789 91.789-45.895 183.578 91.789v-137.684zM742.070 310.316l-183.578-137.684-137.684 45.895-45.895-68.842v252.42h367.157v-91.789z" />
<glyph unicode="&#xe961;" glyph-name="picpre-facesearch" horiz-adv-x="997" d="M637.608 641.276c-29.342 0-53.156-23.814-53.156-53.156s23.814-53.156 53.156-53.156c29.342 0 53.156 23.814 53.156 53.156s-23.814 53.156-53.156 53.156zM318.671 534.963c29.342 0 53.156 23.814 53.156 53.156s-23.814 53.156-53.156 53.156c-29.342 0-53.156-23.814-53.156-53.156s23.814-53.156 53.156-53.156zM478.14 375.495c-39.229 0-73.143 21.528-91.588 53.156h-113.542c23.708-91.535 106.153-159.468 205.13-159.468s181.422 67.934 205.13 159.468h-113.542c-18.445-31.681-52.359-53.156-91.588-53.156zM981.794 26.738l-142.352 142.352c81.967 94.618 127.256 220.757 115.508 355.136-23.017 263.070-255.043 457.302-518.219 433.807-263.176-23.442-457.887-255.734-434.87-518.804s254.99-457.302 518.219-433.807c90.631 8.080 172.757 41.355 241.063 91.694l145.488-145.488c20.784-20.784 54.432-20.784 75.163 0 20.731 20.731 20.731 54.379 0 75.11zM478.14 109.714c-205.502 0-372.093 166.591-372.093 372.093s166.591 372.093 372.093 372.093c205.502 0 372.093-166.591 372.093-372.093s-166.591-372.093-372.093-372.093z" />
<glyph unicode="&#xe962;" glyph-name="remark-edit" horiz-adv-x="678" d="M536.909 696.28l-122.391 70.665c-33.778 19.503-77.024 7.914-96.528-25.863l-247.326-428.369c-19.503-33.778-7.914-77.024 25.863-96.528l122.391-70.665c33.778-19.503 77.024-7.914 96.528 25.863l247.326 428.369c19.503 33.778 7.914 77.024-25.863 96.528zM642.906 879.866l-122.391 70.665c-33.778 19.503-77.024 7.914-96.528-25.863s-7.914-77.024 25.863-96.528l122.391-70.665c33.778-19.503 77.024-7.914 96.528 25.863s7.914 77.024-25.863 96.528zM16.394-64l211.994 65.577-228.388 188.745 16.394-254.322z" />
<glyph unicode="&#xe963;" glyph-name="remark-remove" horiz-adv-x="968" d="M526.454 631.2c-23.598 23.598-61.801 23.598-85.338 0-23.598-23.598-23.598-61.801 0-85.338l67.655-67.655h-206.104c-33.315 0-60.352-27.038-60.352-60.352s27.038-60.352 60.352-60.352h206.104l-67.655-67.655c-23.598-23.598-23.598-61.801 0-85.338 23.537-23.598 61.801-23.598 85.338 0l170.677 170.677c23.598 23.598 23.598 61.801 0 85.338l-170.677 170.677zM935.222 671.998c0 0-200.37 229.158-225.718 256.015-30.237 31.987-64.517 31.987-64.517 31.987h-580.47c-54.438 0-64.517-63.974-64.517-63.974s0-848.012 0-895.992c0-47.98 64.517-63.974 64.517-63.974s790.134 0 838.477 0c48.403 0 64.517 63.974 64.517 63.974s0 563.994 0 607.991c0 35.97-32.289 63.974-32.289 63.974zM846.624 104.142c0 0-13.096-49.127-52.386-49.127s-620.906 0-620.906 0-52.386 12.252-52.386 49.127c0 36.815 0 687.716 0 687.716s8.208 49.127 52.386 49.127h411.302c0 0 27.822 0 52.386-24.563 20.58-20.58 183.411-196.508 183.411-196.508s26.193-21.485 26.193-49.127c0-33.737 0-466.645 0-466.645z" />
<glyph unicode="&#xe964;" glyph-name="camera" horiz-adv-x="1229" d="M1126.4 792.627h-243.302l-36.71 74.291c-24.013 62.208-49.408 93.082-110.387 93.082h-294.4c-60.979 0-77.722-24.986-110.387-93.082l-36.71-74.291h-192.102c-56.576 0-102.4-45.875-102.4-102.4v-651.827c0-56.576 45.824-102.4 102.4-102.4h1024c56.576 0 102.4 45.824 102.4 102.4v651.827c0 56.525-45.824 102.4-102.4 102.4zM614.4 89.6c-169.677 0-307.2 137.523-307.2 307.2s137.523 307.2 307.2 307.2c169.677 0 307.2-137.523 307.2-307.2s-137.523-307.2-307.2-307.2zM614.4 601.6c-113.101 0-204.8-91.699-204.8-204.8s91.699-204.8 204.8-204.8 204.8 91.699 204.8 204.8-91.699 204.8-204.8 204.8z" />
<glyph unicode="&#xe965;" glyph-name="sharedir" horiz-adv-x="1280" d="M960 448c106.048 0 192 85.952 192 192s-85.952 192-192 192c-106.048 0-192-85.952-192-192s85.952-192 192-192zM960 704c35.328 0 64-28.672 64-64s-28.672-64-64-64-64 28.672-64 64 28.672 64 64 64zM1276.8 64c-16.384 179.136-165.312 320-348.8 320h-20.224c38.208-39.744 68.352-87.040 88.448-139.456 80-25.856 140.224-95.168 152.576-180.544h-124.8v-32c0-33.088-4.288-65.152-11.584-96h203.584c35.328 0 64 28.672 64 64l-3.2 64zM544 384h-192c-183.424 0-332.352-140.864-348.8-320l-3.2-64c0-35.328 28.672-64 64-64h768c35.328 0 64 28.672 64 64s0 35.328-3.2 64c-16.448 179.136-165.376 320-348.8 320zM131.2 64c15.616 108.416 108.032 192 220.8 192h192c112.768 0 205.12-83.584 220.8-192h-633.6zM448 448c141.376 0 256 114.624 256 256s-114.624 256-256 256-256-114.624-256-256 114.624-256 256-256zM448 832c70.72 0 128-57.28 128-128s-57.28-128-128-128-128 57.28-128 128 57.28 128 128 128z" />
<glyph unicode="&#xe966;" glyph-name="sharedir-info" d="M512-64c-282.778 0-512 229.222-512 512s229.222 512 512 512 512-229.222 512-512-229.222-512-512-512zM512 856.883c-225.843 0-408.883-183.040-408.883-408.883s183.040-408.883 408.883-408.883 408.883 183.040 408.883 408.883-183.040 408.883-408.883 408.883zM563.2 353.792v-8.192c0-28.262-22.938-51.2-51.2-51.2s-51.2 22.938-51.2 51.2v51.2c0 28.262 22.938 51.2 51.2 51.2 1.792 0 3.328-0.819 5.069-1.024l-0.307 1.485c54.272 2.56 97.638 47.002 97.638 101.939 0 56.576-45.824 102.4-102.4 102.4-43.059 0-79.718-26.624-94.874-64.256l-98.714-2.918c14.387 102.4 83.661 169.574 193.587 169.574 113.101 0 204.8-91.699 204.8-204.8 0-95.232-65.485-173.773-153.6-196.608zM512 243.2c28.262 0 51.2-22.938 51.2-51.2s-22.938-51.2-51.2-51.2c-28.262 0-51.2 22.938-51.2 51.2s22.938 51.2 51.2 51.2z" />
<glyph unicode="&#xe967;" glyph-name="classify-modify-remove" d="M582.871 447.912l268.666-268.666c19.567-19.567 19.567-51.299 0-70.826s-51.299-19.567-70.826 0l-268.758 268.666-268.575-268.666c-19.567-19.567-51.299-19.567-70.826 0s-19.567 51.299 0 70.826l268.666 268.666-268.758 268.666c-19.567 19.567-19.567 51.299 0 70.826s51.299 19.567 70.826 0l268.666-268.666 268.666 268.666c19.567 19.567 51.299 19.567 70.826 0s19.567-51.299 0-70.826l-268.575-268.666z" />
<glyph unicode="&#xe968;" glyph-name="setting" d="M262.802 131.007l-42.74-42.74c-19.995-19.995-52.413-19.995-72.408 0l-9.051 9.051c-19.995 19.995-19.995 52.413 0 72.408l44.701 44.701c-36.376 51.098-61.134 111.039-70.422 175.972h-61.683c-28.277 0-51.2 22.923-51.2 51.2v12.8c0 28.277 22.923 51.2 51.2 51.2h61.683c9.771 68.308 36.663 131.093 76.189 183.869l-50.468 50.468c-19.995 19.995-19.995 52.413 0 72.408l9.051 9.051c19.995 19.995 52.413 19.995 72.408 0v0l50.468-50.468c52.776 39.526 115.561 66.418 183.869 76.189v61.683c0 28.277 22.923 51.2 51.2 51.2h12.8c28.277 0 51.2-22.923 51.2-51.2v-61.683c64.933-9.288 124.874-34.046 175.972-70.422l44.701 44.701c19.995 19.995 52.413 19.995 72.408 0l9.051-9.051c19.995-19.995 19.995-52.413 0-72.408l-42.74-42.74c42.77-54.33 71.872-119.923 82.124-191.598h61.683c28.277 0 51.2-22.923 51.2-51.2v-12.8c0-28.277-22.923-51.2-51.2-51.2h-61.683c-9.771-68.308-36.663-131.093-76.189-183.869l36.804-36.804c19.995-19.995 19.995-52.413 0-72.408l-9.051-9.051c-19.995-19.995-52.413-19.995-72.408 0l-36.804 36.804c-52.776-39.526-115.561-66.418-183.869-76.189v-61.683c0-28.277-22.923-51.2-51.2-51.2h-12.8c-28.277 0-51.2 22.923-51.2 51.2v61.683c-71.674 10.252-137.268 39.355-191.598 82.124zM512 160c159.058 0 288 128.942 288 288s-128.942 288-288 288c-159.058 0-288-128.942-288-288s128.942-288 288-288z" />
<glyph unicode="&#xe969;" glyph-name="share-sellmall" d="M513.232-8.732c-250.453 0-453.486 203.032-453.486 453.486s203.032 453.486 453.486 453.486c250.453 0 453.486-203.032 453.486-453.486s-203.032-453.486-453.486-453.486zM513.232 66.849c208.711 0 377.905 169.194 377.905 377.905s-169.194 377.905-377.905 377.905c-208.711 0-377.905-169.194-377.905-377.905s169.194-377.905 377.905-377.905zM293.804 657.071h100.223l119.205-147.953 119.205 147.953h100.223l-148.057-167.972h100.983v-55.745h-127.557l-0.759-0.715v-61.469h128.316v-57.619h-128.316v-95.338h-88.075v95.338h-127.557v57.619h127.557v61.469l-0.759 0.715h-126.798v55.745h100.223z" />
</font>
</defs>
</svg>
